Поиск

2019 Yves Theiler Trio ‎– We {Intakt 324} [24-44,1]

2019 Yves Theiler Trio ‎– We {Intakt 324} [24-44,1]
Стили:
Дата записи диска:
5,6 июля 2018
Место записи:
Hardstudios
Издатель (лейбл):
Номер по каталогу:
324
Носитель:
WEB
Формат:
PCM
Тип рипа:
tracks
Контейнер:
FLAC (*.flac)
Количество каналов:
2.0
Разрядность/ЧД:
24/44,1
Формат записи/Источник записи:
[TR24][OF]
Время звучания:
00:47:52
Наличие сканов:
только обложка
Наличие водяных знаков:
нет
Страна-производитель диска (релиза):
Switzerland
Релизёр (источник):
M0p94ok
Треклист:

1    Slush In Thaw    9:09
2    No Rank, No Hill    8:20
3    The Truth Is, I Was Born In Argentinia    6:40
4    WE    6:04
5    Beauty In Space    9:42
6    The Visit Of Mr. Lev    7:57
7    Every Year    12:40

Лог проверки качества
foobar2000 1.4.3 / Dynamic Range Meter 1.1.1
log date: 2020-02-20 10:52:38

--------------------------------------------------------------------------------
Analyzed: Yves Theiler / WE
--------------------------------------------------------------------------------

DR         Peak         RMS     Duration Track
--------------------------------------------------------------------------------
DR11      -0.21 dB   -13.75 dB      9:09 01-Slush in Thaw
DR10      -0.28 dB   -11.97 dB      8:20 02-No Rank, No Hill
DR10      -0.29 dB   -12.73 dB      6:41 03-The Truth Is, I Was Born in Argentina
DR11      -0.28 dB   -14.79 dB      6:05 04-WE
DR10      -0.25 dB   -13.35 dB      9:43 05-Beauty in Space
DR11      -0.15 dB   -12.82 dB      7:58 06-The Visit of Mr. Lev
--------------------------------------------------------------------------------

Number of tracks:  6
Official DR value: DR10

Samplerate:        44100 Hz
Channels:          2
Bits per sample:   24
Bitrate:           1599 kbps
Codec:             FLAC
================================================================================
Приватный:
Нет (DHT включён)
Размер:
534.91 Мб (560,893,939 байт) » файлов: 8
Участники:
2 раздают, 1 качают (3 участников всего)
Внешние участники:
--- [ Обновить ]
Скорость:
729.36 Кб/c 0/c
Есть вопросы - пишите личное сообщение пользователю M0p94ok.
11:08
24
Нет комментариев. Ваш будет первым!