Поиск

1959 Cal Tjader - Demasiado Caliente! Tjader Goes Latin (2019) {RevOla} [24-44,1]

1959 Cal Tjader - Demasiado Caliente! Tjader Goes Latin (2019) {RevOla} [24-44,1]
Стили:
Треклист:

01 - Manila 05:01
02 - Key Largo 03:39
03 - Tumbao 06:57
04 - Bludan 03:12
05 - Chispita 03:31
06 - September Song 03:51
07 - Cal's Pal 03:41
08 - Para Ti 03:33
09 - Mamblues 04:45
10 - Mi China 02:19
11 - Close Your Eyes 03:13
12 - Mambo at the 'M' 04:42
13 - Contigo 02:42
14 - Bonita 02:31
15 - The Lady Is a Tramp 04:35
16 - Black Orchid 03:27
17 - Happiness Is a Thing Called Joe 03:47
18 - I've Waited So Long 02:11
19 - Out of Nowhere 03:28
20 - Guajira at the Blackhawk 05:20
21 - Mamblues (Original 1954 Single Version) 02:24

Доп. инфо:

Формат записи/Источник записи: [TR24][OF]
Издание: Remastered
Год издания/переиздания диска: 1960-1959/2019
Издатель (лейбл): RevOla
Продолжительность: 01:18:49
Наличие сканов в содержимом раздачи: Нет

Контейнер: FLAC (*.flac)
Тип рипа: tracks
Разрядность: 24/44,1
Количество каналов: 2.0

Источник (релизер): Qobuz

Лог проверки качества
foobar2000 1.4.3 / Dynamic Range Meter 1.1.1
log date: 2020-01-10 01:01:02

--------------------------------------------------------------------------------
Analyzed: Cal Tjader / Demasiado Caliente!
--------------------------------------------------------------------------------

DR         Peak         RMS     Duration Track
--------------------------------------------------------------------------------
DR12      -3.94 dB   -18.09 dB      5:02 01-Manila (Remastered)
DR12      -3.32 dB   -19.90 dB      3:39 02-Key Largo (Remastered)
DR15      -2.58 dB   -20.34 dB      6:58 03-Tumbao (Remastered)
DR12      -3.67 dB   -18.43 dB      3:12 04-Bludan (Remastered)
DR12      -4.62 dB   -18.89 dB      3:32 05-Chispita (Remastered)
DR15      -2.88 dB   -21.16 dB      3:51 06-September Song (Remastered)
DR13      -2.56 dB   -18.02 dB      3:41 07-Cal's Pal (Remastered)
DR12      -3.46 dB   -19.07 dB      3:33 08-Para Ti (Remastered)
DR13      -2.92 dB   -18.72 dB      4:46 09-Mamblues (Remastered)
--------------------------------------------------------------------------------

Number of tracks:  9
Official DR value: DR13

Samplerate:        44100 Hz
Channels:          2
Bits per sample:   24
Bitrate:           1168 kbps
Codec:             FLAC
================================================================================

--------------------------------------------------------------------------------
Statistics for: 21-Mamblues (Original 1954 Single Version Remastered)
Number of samples: 6363336
Duration: 2:24
--------------------------------------------------------------------------------

                 Left              Right

Peak Value:     -3.72 dB   ---     -3.65 dB
Avg RMS:       -20.22 dB   ---    -20.14 dB
DR channel:     12.90 dB   ---     12.87 dB
--------------------------------------------------------------------------------

Official DR Value: DR13

Samplerate:        44100 Hz
Channels:          2
Bits per sample:   24
Bitrate:           1241 kbps
Codec:             FLAC
================================================================================
--------------------------------------------------------------------------------
Analyzed: Cal Tjader / Tjader Goes Latin
--------------------------------------------------------------------------------

DR         Peak         RMS     Duration Track
--------------------------------------------------------------------------------
DR12      -3.95 dB   -18.58 dB      2:19 10-Mi China (Remastered)
DR14      -2.56 dB   -21.70 dB      3:14 11-Close Your Eyes (Remastered)
DR14      -4.55 dB   -22.35 dB      4:43 12-Mambo at the 'M' (Remastered)
DR13      -3.09 dB   -20.61 dB      2:43 13-Contigo (Remastered)
DR13      -3.70 dB   -21.31 dB      2:32 14-Bonita (Remastered)
DR15      -2.74 dB   -21.37 dB      4:35 15-The Lady Is a Tramp (Remastered)
DR15      -5.36 dB   -25.08 dB      3:27 16-Black Orchid (Remastered)
DR13      -2.88 dB   -22.28 dB      3:48 17-Happiness Is a Thing Called Joe (Remastered)
DR14      -5.93 dB   -23.32 dB      2:11 18-I've Waited So Long (Remastered)
DR13      -3.16 dB   -22.56 dB      3:29 19-Out of Nowhere (Remastered)
DR15      -3.40 dB   -21.95 dB      5:21 20-Guajira at the Blackhawk (Remastered)
--------------------------------------------------------------------------------

Number of tracks:  11
Official DR value: DR14

Samplerate:        44100 Hz
Channels:          2
Bits per sample:   24
Bitrate:           1340 kbps
Codec:             FLAC
================================================================================
Приватный:
Нет (DHT включён)
Размер:
692.00 Мб (725,615,424 байт) » файлов: 27
Участники:
0 раздают, 0 качают (0 участников всего)
Внешние участники:
3 раздают, 1 качают (4 участников всего) [ Обновить ]
Скорость:
1.26 Мб/c 90.00 байт/c
Есть вопросы - пишите личное сообщение пользователю M0p94ok.
00:31
22
Нет комментариев. Ваш будет первым!