Поиск

2017 Paula Cole - Ballads {675} [24-192]

2017 Paula Cole - Ballads {675} [24-192]
Дата издания диска:
11 августа 2017
Носитель:
WEB
Формат:
PCM
Тип рипа:
tracks
Контейнер:
FLAC (*.flac)
Количество каналов:
2.0
Разрядность/ЧД:
24/192
Время звучания:
01:15:19
Наличие сканов:
только обложка
Наличие водяных знаков:
нет
Страна-производитель диска (релиза):
USA
Релизёр (источник):
M0p94ok
Треклист:

01. God Bless the Child 5:12
02. I Wish (I Knew How It Feels to Be Free) 3:40
03. Naima 3:48
04. Ode to Billy Joe 4:47
05. You've Changed 4:45
06. What a Little Moonlight Can Do 2:28
07. I'm Old Fashioned 2:49
08. The Lonesome Death of Hattie Carroll 6:34
09. Never Will I Marry 2:19
10. Skylark 3:37
11. The Ballad of Hollis Brown 7:38
12. Body and Soul 3:42
13. Nice Work If You Can Get It 2:20
14. Farewell, My Friends 3:07
15. I Cover the Waterfront 3:51
16. Blue Moon 2:58
17. You Hit the Spot 1:48
18. Willow Weep for Me 4:13
19. Autumn Leaves 2:15
20. My One and Only Love 3:29

Лог проверки качества
foobar2000 1.4.3 / Dynamic Range Meter 1.1.1
log date: 2020-02-19 14:29:15

--------------------------------------------------------------------------------
Analyzed: Paula Cole / Ballads
--------------------------------------------------------------------------------

DR         Peak         RMS     Duration Track
--------------------------------------------------------------------------------
DR13      -0.10 dB   -15.11 dB      5:12 01-God Bless The Child
DR11      -0.10 dB   -14.17 dB      3:40 02-I Wish I Knew How It Feels To Be Free
DR9       -0.10 dB   -14.16 dB      3:50 03-Naima
DR12      -0.10 dB   -15.01 dB      4:49 04-Ode To Billy Joe
DR11      -0.10 dB   -15.33 dB      4:47 05-You've Changed
DR13      -0.10 dB   -15.35 dB      2:28 06-What A Little Moonlight Can Do
DR11      -0.10 dB   -13.88 dB      2:50 07-I'm Old Fashioned
DR12      -0.10 dB   -14.72 dB      6:35 08-The Lonesome Death Of Hattie Carroll
DR10      -0.10 dB   -13.85 dB      2:21 09-Never Will I Marry
DR11      -0.10 dB   -13.93 dB      3:38 10-Skylark
DR12      -0.10 dB   -15.42 dB      7:40 11-The Ballad Of Hollis Brown
DR12      -0.19 dB   -15.90 dB      3:44 12-Body And Soul
DR12      -0.10 dB   -14.80 dB      2:22 13-Nice Work If You Can Get It
DR13      -0.10 dB   -15.72 dB      3:07 14-Farewell, My Friends
DR12      -0.81 dB   -17.50 dB      3:53 15-I Cover The Waterfront
DR11      -0.10 dB   -14.57 dB      3:00 16-Blue Moon
DR11      -0.10 dB   -13.39 dB      1:50 17-You Hit The Spot
DR10      -0.10 dB   -13.39 dB      4:14 18-Willow Weep For Me
DR11      -0.10 dB   -14.03 dB      2:16 19-Autumn Leaves
DR10      -0.70 dB   -15.89 dB      3:26 20-My One And Only Love
--------------------------------------------------------------------------------

Number of tracks:  20
Official DR value: DR11

Samplerate:        192000 Hz
Channels:          2
Bits per sample:   24
Bitrate:           5477 kbps
Codec:             FLAC
================================================================================
Приватный:
Нет (DHT включён)
Размер:
2.86 Гб (3,068,892,419 байт) » файлов: 23
Участники:
3 раздают, 2 качают (5 участников всего)
Внешние участники:
--- [ Обновить ]
Скорость:
1.05 Мб/c 5.45 Кб/c
Есть вопросы - пишите личное сообщение пользователю M0p94ok.
16:08
41
16:12