Поиск

2020 Nils Landgren - Kristallen {ACT Music ACT 9628-2} [24-96]

2020 Nils Landgren - Kristallen {ACT Music ACT 9628-2} [24-96]
Стили:
Дата записи диска:
26 - 27 марта 2018
Место записи:
Nilento Studio, Gothenburg
Дата издания диска:
10 января 2020
Издатель (лейбл):
Номер по каталогу:
ACT 9628-2
Носитель:
WEB
Формат:
PCM
Тип рипа:
tracks
Контейнер:
FLAC (*.flac)
Количество каналов:
2.0
Разрядность/ЧД:
24/96
Формат записи/Источник записи:
[TR24][OF]
Время звучания:
00:56:14
Наличие сканов:
только обложка
Наличие водяных знаков:
нет
Релизёр (источник):
Alexbikkert
Треклист:

01. Blekinge  03:48
02. Byssan Lull  03:49
03. Country  04:15
04. Didn't We  05:20
05. Hornlatar  03:04
06. I Will  04:24
07. Why Did You Let Me Go  04:18
08. Lovers Parade  04:56
09. Norwegian Wood  03:42
10. Olu  04:36
11. The Nearness of You  05:24
12. Värmlandsvisan  03:45
13. The Wedding  04:53

Лог проверки качества
foobar2000 1.3.7 / Dynamic Range Meter 1.1.1
log date: 2020-01-08 14:45:02

––––––––––––––––––––––––––––––––––––––––
Analyzed: Nils Landgren & Jan Lundgren  / Kristallen
––––––––––––––––––––––––––––––––––––––––

DR Peak RMS Duration Track
––––––––––––––––––––––––––––––––––––––––
DR10 -2.16 dB -17.22 dB 3:49 01-Blekinge
DR11 -1.04 dB -16.79 dB 3:50 02-Byssan Lull
DR10 -1.76 dB -15.39 dB 4:16 03-Country
DR10 -2.31 dB -16.30 dB 5:21 04-Didn't We
DR11 -2.24 dB -18.49 dB 3:05 05-Hornlatar
DR11 -1.85 dB -14.98 dB 4:24 06-I Will
DR11 -3.26 dB -18.10 dB 4:18 07-Why Did You Let Me Go
DR11 -2.52 dB -16.43 dB 4:57 08-Lovers Parade
DR10 -1.28 dB -14.07 dB 3:43 09-Norwegian Wood
DR11 -1.06 dB -17.07 dB 4:36 10-Olu
DR11 -2.00 dB -16.99 dB 5:25 11-The Nearness of You
DR10 -1.61 dB -15.76 dB 3:46 12-Värmlandsvisan
DR9 -1.69 dB -14.65 dB 4:53 13-The Wedding
––––––––––––––––––––––––––––––––––––––––

Number of tracks: 13
Official DR value: DR10

Samplerate: 96000 Hz
Channels: 2
Bits per sample: 24
Bitrate: 2274 kbps
Codec: FLAC
================================================================================
Приватный:
Да (DHT отключён)
Размер:
921.60 Мб (966,365,857 байт) » файлов: 14
Участники:
17 раздают, 1 качают (18 участников всего)
Внешние участники:
25 раздают, 8 качают (33 участников всего) [ Обновить ]
Скорость:
671.21 Кб/c 16.03 Мб/c
Есть вопросы - пишите личное сообщение пользователю M0p94ok.
14:20
44
Нет комментариев. Ваш будет первым!