Поиск

2012 Caroll Vanwelden - Sings Shakespeare Sonnets {Jazz'n'Arts JNA 6012} [24-96]

2012 Caroll Vanwelden - Sings Shakespeare Sonnets {Jazz'n'Arts JNA 6012} [24-96]
Дата издания диска:
12 октября 2012
Номер по каталогу:
Jazz'n'Arts JNA 6012
Носитель:
WEB
Формат:
PCM
Тип рипа:
tracks
Контейнер:
FLAC (*.flac)
Количество каналов:
2.0
Разрядность/ЧД:
24/96
Формат записи/Источник записи:
[TR24][OF]
Время звучания:
00:57:37
Наличие сканов:
только обложка
Наличие водяных знаков:
нет
Страна-производитель диска (релиза):
Germany
Релизёр (источник):
M0p94ok

Треклист:

01    Sweet Love    3:51
02    Two Loves    4:39
03    The Marriage Of True Minds    4:00
04    How Can I Then Return In Happy Plight    5:01
05    When Do I Count The Clock    4:08
06    Those Hours    4:45
07    Some Glory    3:00
08    Not From The Stars    1:51
09    Look In Thy Glass    3:40
10    Who Will Believe    3:26
11    So Shall I Live Supposing    2:54
12    Weary With Toil    3:55
13    What Is Your Substance    1:59
14    O, That You Were Yourself    2:59
15    As An Unperfect Actor    4:05
16    Forty Winters    3:24

Лог проверки качества
foobar2000 1.4.3 / Dynamic Range Meter 1.1.1
log date: 2020-02-20 16:09:13

--------------------------------------------------------------------------------
Analyzed: Caroll Vanwelden / Sings Shakespeare Sonnets
--------------------------------------------------------------------------------

DR         Peak         RMS     Duration Track
--------------------------------------------------------------------------------
DR9       -0.09 dB   -12.69 dB      3:51 01-Sweet Love
DR8       -0.09 dB   -11.11 dB      4:40 02-Two Loves
DR8       -0.09 dB    -9.41 dB      4:00 03-The Marriage of True Minds
DR9       -0.09 dB   -12.33 dB      5:02 04-How can I then Return in Happy Plight
DR8       -0.09 dB   -10.92 dB      4:08 05-When I do Count the Clock
DR9       -0.09 dB   -12.61 dB      4:45 06-Those Hours
DR9       -0.09 dB   -11.47 dB      3:00 07-Some Glory
DR10      -0.59 dB   -12.98 dB      1:52 08-Not from the Stars
DR11      -0.09 dB   -12.92 dB      3:40 09-Look in thy Glass
DR7       -0.09 dB    -9.95 dB      3:26 10-Who will Believe
DR10      -0.09 dB   -11.92 dB      2:54 11-So shall I live Supposing
DR8       -1.42 dB   -12.74 dB      3:55 12-Weary with Toil
DR10      -0.59 dB   -11.94 dB      2:00 13-What is your Substance
DR10      -0.09 dB   -12.58 dB      3:00 14-O, that You were Yourself
DR10      -0.09 dB   -12.97 dB      4:05 15-As an Unperfect Actor
DR11      -0.09 dB   -15.75 dB      3:25 16-Forty Winters
--------------------------------------------------------------------------------

Number of tracks:  16
Official DR value: DR9

Samplerate:        96000 Hz
Channels:          2
Bits per sample:   24
Bitrate:           2693 kbps
Codec:             FLAC
================================================================================
Приватный:
Нет (DHT включён)
Размер:
1.22 Гб (1,313,935,102 байт) » файлов: 19
Участники:
8 раздают, 0 качают (8 участников всего)
Внешние участники:
--- [ Обновить ]
No seeders - write a personal message to user M0p94ok. Нет сидеров - пишите личное сообщение пользователю M0p94ok.
16:21
53
Нет комментариев. Ваш будет первым!