Поиск

1959 Charlie Byrd - Byrd In The Wind (2019) {RevOla} [24-44,1]

1959 Charlie Byrd - Byrd In The Wind (2019) {RevOla} [24-44,1]
Дата записи диска:
март 1959
Место записи:
Edgewood Recording Studio, Washington, DC
Релизёр (источник):
latimer
Треклист:

01 - Swing 03:22
02 - You'd Be So Nice To Come Home To 02:50
03 - Showboat Shuffle 03:57
04 - Love Letters 03:00
05 - Cross Your Heart 02:17
06 - Keter's Dirty Blues 04:11
07 - You're A Sweetheart 02:31
08 - Stars Fell On Alabama 03:15
09 - You Came A Long Way From St. Louis 03:30
10 - Wait Till You See Her 02:53
11 - Georgia On My Mind 03:08
12 - Copacabana 02:53

Доп. инфо:

Формат записи/Источник записи: [TR24][OF]
Издание: Remastered
Год издания/переиздания диска: 1959/2019
Издатель (лейбл): RevOla
Продолжительность: 00:37:47
Наличие сканов в содержимом раздачи: Нет

Контейнер: FLAC (*.flac)
Тип рипа: tracks
Разрядность: 24/44,1
Количество каналов: 2.0

Источник (релизер): Qobuz

Лог проверки качества
foobar2000 1.4.3 / Dynamic Range Meter 1.1.1
log date: 2020-01-11 08:43:22

--------------------------------------------------------------------------------
Analyzed: Charlie Byrd / Byrd In The Wind
--------------------------------------------------------------------------------

DR         Peak         RMS     Duration Track
--------------------------------------------------------------------------------
DR11      -5.54 dB   -20.33 dB      3:22 01-Swing (Remastered)
DR13      -2.38 dB   -20.04 dB      2:50 02-You'd Be So Nice To Come Home To (Remastered)
DR13      -1.81 dB   -19.42 dB      3:58 03-Showboat Shuffle (Remastered)
DR13      -2.99 dB   -20.10 dB      3:00 04-Love Letters (Remastered)
DR13      -2.45 dB   -20.01 dB      2:18 05-Cross Your Heart (Remastered)
DR14      -1.65 dB   -19.26 dB      4:11 06-Keter's Dirty Blues (Remastered)
DR13      -2.96 dB   -19.37 dB      2:32 07-You're A Sweetheart (Remastered)
DR12      -5.21 dB   -19.90 dB      3:16 08-Stars Fell On Alabama (Remastered)
DR13      -1.40 dB   -18.04 dB      3:30 09-You Came A Long Way From St. Louis (Remastered)
DR9       -6.87 dB   -20.30 dB      2:54 10-Wait Till You See Her (Remastered)
DR12      -2.04 dB   -17.35 dB      3:09 11-Georgia On My Mind (Remastered)
DR11      -1.18 dB   -15.01 dB      2:54 12-Copacabana (Remastered)
--------------------------------------------------------------------------------

Number of tracks:  12
Official DR value: DR12

Samplerate:        44100 Hz
Channels:          2
Bits per sample:   24
Bitrate:           1606 kbps
Codec:             FLAC
================================================================================
Приватный:
Нет (DHT включён)
Размер:
391.11 Мб (410,106,423 байт) » файлов: 16
Участники:
0 раздают, 16 качают (16 участников всего)
Внешние участники:
8 раздают, 2 качают (10 участников всего) [ Обновить ]
Есть вопросы - пишите личное сообщение пользователю M0p94ok.
16:59
19
Нет комментариев. Ваш будет первым!