Поиск

2018 Benoit Delbecq 4 - Spots on Stripes {Clean Feed CF463C} [24-88,2]

2018 Benoit Delbecq 4 - Spots on Stripes {Clean Feed CF463C} [24-88,2]
Дата записи диска:
15 июня 2017
Место записи:
Trading8s Studio, Paramus, NJ, USA
Дата издания диска:
8 июня 2018
Издатель (лейбл):
Номер по каталогу:
CF463C
Носитель:
WEB
Формат:
PCM
Тип рипа:
tracks
Контейнер:
FLAC (*.flac)
Количество каналов:
2.0
Разрядность/ЧД:
24/88,2
Формат записи/Источник записи:
[TR24][OF]
Время звучания:
00:53:20
Наличие сканов:
только обложка
Наличие водяных знаков:
нет
Страна-производитель диска (релиза):
Portugal
Релизёр (источник):
M0p94ok
Треклист:

01    Spots On Stripes    08:35
02    Broken World    04:13
03    Rosemary K    03:41
04    The Loop Of Chicago    05:24
05    Disparition Du Si    03:20
06    Dawn Sounds    06:51
07    Old Vinyl    05:43
08    Springs    05:28
09    Dripping Stones    04:35
10    De Staël    05:30

Лог проверки качества
foobar2000 1.4.3 / Dynamic Range Meter 1.1.1
log date: 2020-02-20 17:20:47

--------------------------------------------------------------------------------
Analyzed: Benoit Delbecq 4 / Spots on Stripes
--------------------------------------------------------------------------------

DR         Peak         RMS     Duration Track
--------------------------------------------------------------------------------
DR11      -0.72 dB   -14.35 dB      8:36 01-Spots on Stripes
DR11      -0.72 dB   -16.18 dB      4:13 02-Broken World
DR11      -0.72 dB   -14.41 dB      3:42 03-Rosemary K
DR9       -0.72 dB   -12.91 dB      5:25 04-The Loop of Chicago
DR15      -0.72 dB   -19.47 dB      3:21 05-Disparition Du Si
DR10      -0.72 dB   -13.70 dB      6:52 06-Dawn Sounds
DR12      -0.72 dB   -15.09 dB      5:44 07-Old Vinyl
DR9       -0.72 dB   -11.98 dB      5:29 08-Springs
DR13      -0.72 dB   -18.18 dB      4:35 09-Dripping Stones
DR10      -0.72 dB   -13.33 dB      5:30 10-De Stael
--------------------------------------------------------------------------------

Number of tracks:  10
Official DR value: DR11

Samplerate:        88200 Hz
Channels:          2
Bits per sample:   24
Bitrate:           2741 kbps
Codec:             FLAC
================================================================================
Приватный:
Нет (DHT включён)
Размер:
1020.67 Мб (1,070,252,116 байт) » файлов: 13
Участники:
6 раздают, 0 качают (6 участников всего)
Внешние участники:
--- [ Обновить ]
Есть вопросы - пишите личное сообщение пользователю M0p94ok.
17:34
24
Нет комментариев. Ваш будет первым!