Поиск

2018 Christophe Monniot & Didier Ithursarry ‎– Hymnes À L'Amour {ONJazz JF009} [24-44,1]

2018 Christophe Monniot & Didier Ithursarry ‎– Hymnes À L'Amour {ONJazz JF009} [24-44,1]
Стили:
Дата записи диска:
май 2017
Место записи:
L'Atelier du Plateau
Дата издания диска:
16 ноября 2018
Номер по каталогу:
ONJazz Records JF009
Носитель:
WEB
Формат:
PCM
Тип рипа:
tracks
Контейнер:
FLAC (*.flac)
Количество каналов:
2.0
Разрядность/ЧД:
24/44,1
Время звучания:
00:44:43
Наличие сканов:
только обложка
Наличие водяных знаков:
нет
Релизёр (источник):
M0p94ok
Треклист:

1. Biguine pour sushi (5:19)
2. Soso (6:02)
3. España cañi (4:05)
4. Nadir's (8:16)
5. Est (4:40)
6. Sophisticated Lady (4:03)
7. Passion (6:20)
8. Il est un fleuve (6:03)

Лог проверки качества
foobar2000 1.4.3 / Dynamic Range Meter 1.1.1
log date: 2020-02-20 22:51:02

--------------------------------------------------------------------------------
Analyzed: Christophe Monniot / Hymnes a l'amour
--------------------------------------------------------------------------------

DR         Peak         RMS     Duration Track
--------------------------------------------------------------------------------
DR10      -1.50 dB   -13.77 dB      5:19 01-Biguine pour sushi
DR9       -1.44 dB   -13.57 dB      6:02 02-Soso
DR9       -1.38 dB   -13.78 dB      4:05 03-Espana cani
DR10      -1.98 dB   -16.43 dB      8:16 04-Nadir's
DR7       -1.32 dB   -10.64 dB      4:40 05-Est
DR9       -1.73 dB   -13.79 dB      4:03 06-Sophisticated Lady
DR9       -1.47 dB   -13.46 dB      6:20 07-Passion
DR10      -1.38 dB   -14.89 dB      6:03 08-Il est un fleuve
--------------------------------------------------------------------------------

Number of tracks:  8
Official DR value: DR9

Samplerate:        44100 Hz
Channels:          2
Bits per sample:   24
Bitrate:           1348 kbps
Codec:             FLAC
================================================================================
Приватный:
Нет (DHT включён)
Размер:
445.72 Мб (467,376,110 байт) » файлов: 11
Участники:
2 раздают, 0 качают (2 участников всего)
Внешние участники:
--- [ Обновить ]
Есть вопросы - пишите личное сообщение пользователю M0p94ok.
23:02
26
Нет комментариев. Ваш будет первым!