Поиск

1960 Cal Tjader - Latino! (2019) {RevOla} [24-44,1]

1960 Cal Tjader - Latino! (2019) {RevOla} [24-44,1]
Треклист:

01 - Manila 04:51
02 - Key Largo 03:33
03 - Tumbao 06:45
04 - Bludan 03:06
05 - Chispita 03:25
06 - September Song 03:43
07 - Cal's Pals 03:34
08 - Para Ti 03:26
09 - Mamblues 04:40
10 - Afro Blue 06:32
11 - Cuban Fantasy 06:30
12 - Rezo 05:58
13 - Mambo Terrifico! 04:21
14 - A Night In Tunisia 08:34
15 - The Continental 04:45

Доп. инфо:

Формат записи/Источник записи: [TR24][OF]
Издание: Remastered
Год издания/переиздания диска: 1960/2019
Издатель (лейбл): RevOla
Продолжительность: 01:13:43
Наличие сканов в содержимом раздачи: Нет

Контейнер: FLAC (*.flac)
Тип рипа: tracks
Разрядность: 24/44,1
Количество каналов: 2.0

Источник (релизер): Qobuz

Лог проверки качества
foobar2000 1.4.3 / Dynamic Range Meter 1.1.1
log date: 2020-01-11 19:27:27

--------------------------------------------------------------------------------
Analyzed: Cal Tjader / Latino! (Remastered)
--------------------------------------------------------------------------------

DR         Peak         RMS     Duration Track
--------------------------------------------------------------------------------
DR13      -2.78 dB   -19.11 dB      4:51 01-Manila (Remastered)
DR13      -1.49 dB   -20.30 dB      3:33 02-Key Largo (Remastered)
DR15      -1.59 dB   -20.41 dB      6:45 03-Tumbao (Remastered)
DR13      -2.06 dB   -18.95 dB      3:07 04-Bludan (Remastered)
DR12      -1.59 dB   -17.34 dB      3:26 05-Chispita (Remastered)
DR16      -4.42 dB   -23.65 dB      3:44 06-September Song (Remastered)
DR14      -1.67 dB   -18.79 dB      3:35 07-Cal's Pals (Remastered)
DR13      -4.44 dB   -20.77 dB      3:27 08-Para Ti (Remastered)
DR14      -2.99 dB   -19.46 dB      4:41 09-Mamblues (Remastered)
DR12      -1.85 dB   -16.86 dB      6:33 10-Afro Blue (Remastered)
DR11      -1.98 dB   -15.14 dB      6:30 11-Cuban Fantasy (Remastered)
DR14      -3.25 dB   -21.16 dB      5:59 12-Rezo (Remastered)
DR14      -3.58 dB   -20.07 dB      4:22 13-Mambo Terrifico! (Remastered)
DR14      -2.53 dB   -19.05 dB      8:35 14-A Night In Tunisia (Remastered)
DR15      -2.60 dB   -19.86 dB      4:45 15-The Continental (Remastered)
--------------------------------------------------------------------------------

Number of tracks:  15
Official DR value: DR13

Samplerate:        44100 Hz
Channels:          2
Bits per sample:   24
Bitrate:           1532 kbps
Codec:             FLAC
================================================================================
Приватный:
Нет (DHT включён)
Размер:
787.03 Мб (825,259,233 байт) » файлов: 19
Участники:
0 раздают, 0 качают (0 участников всего)
Внешние участники:
10 раздают, 3 качают (13 участников всего) [ Обновить ]
Скорость:
3.35 Мб/c 0/c
Есть вопросы - пишите личное сообщение пользователю M0p94ok.
12:25
25
Нет комментариев. Ваш будет первым!