Поиск

2016 Philippe Mouratoglou - D'autres Vallées {Vision Fugitive ‎VF313011} [24-88,2]

2016 Philippe Mouratoglou - D'autres Vallées {Vision Fugitive ‎VF313011} [24-88,2]
Дата записи диска:
июнь 2015
Место записи:
Studios La Buissonne, Pernes-les-Fontaines
Дата издания диска:
2016
Номер по каталогу:
Vision Fugitive ‎VF313011
Носитель:
WEB
Формат:
PCM
Тип рипа:
tracks
Контейнер:
FLAC (*.flac)
Количество каналов:
2.0
Разрядность/ЧД:
24/88,2
Формат записи/Источник записи:
[TR24][OF]
Время звучания:
01:03:19
Наличие сканов:
только обложка
Наличие водяных знаков:
нет
Страна-производитель диска (релиза):
France
Релизёр (источник):
M0p94ok

Треклист:

01    Vallée Des Ombres    4:25

  • Sonata    (15:14)

02    Fandangos Y Boleros    6:34
03    Sarabanda De Scriabin    3:51
04    La Toccata De Pasquini    4:49

  • D'Autres Vallées    (12:14)

05    Vallée Des Roseaux    4:13
06    Vallée Des Songes    1:28
07    Vallée Des Voyageurs    1:55
08    Vallée Des Étoiles    2:06
09    Vallée Des Chimères    2:32
10    Murailles    4:04

  • Nocturnal After John Dowland Op.70    (22:49)

11    Musingly    3:07
12    Very Agitated    0:50
13    Restless    2:14
14    Uneasy    1:39
15    March-Like    2:19
16    Dreaming    2:38
17    Gently Rocking    1:26
18    Passacaglia    8:42
19    Passacaille Pour Luc    4:26
 

Лог проверки качества
foobar2000 1.4.3 / Dynamic Range Meter 1.1.1
log date: 2020-02-21 12:46:37

--------------------------------------------------------------------------------
Analyzed: Philippe Mouratoglou / D'autres vallées
--------------------------------------------------------------------------------

DR         Peak         RMS     Duration Track
--------------------------------------------------------------------------------
DR16      -0.69 dB   -22.37 dB      4:25 01-Vallée des ombres
DR13      -0.32 dB   -17.77 dB      6:34 02-Fandangos y boleros
DR16      -0.37 dB   -21.89 dB      3:51 03-Sarabanda de Scriabin
DR12      -0.29 dB   -15.66 dB      4:49 04-La toccata de Pasquini
DR16      -0.31 dB   -19.82 dB      4:13 05-Vallée des roseaux
DR12      -8.63 dB   -30.33 dB      1:28 06-Vallée des songes
DR19      -0.24 dB   -23.27 dB      1:55 07-Vallée des voyageurs
DR11      -8.54 dB   -25.32 dB      2:06 08-Vallée des étoiles
DR15      -1.37 dB   -22.35 dB      2:32 09-Vallée des chimères
DR15      -0.31 dB   -19.52 dB      4:04 10-Murailles
DR14      -6.98 dB   -27.54 dB      3:07 11-Musingly
DR11      -0.29 dB   -14.02 dB      0:50 12-Very Agitated
DR13      -2.81 dB   -21.49 dB      2:14 13-Restless
DR9       -0.32 dB   -15.21 dB      1:39 14-Uneasy
DR16      -1.13 dB   -24.09 dB      2:19 15-March-Like
DR16      -3.81 dB   -26.34 dB      2:38 16-Dreaming
DR12      -8.22 dB   -24.58 dB      1:26 17-Gently Rocking
DR13      -0.28 dB   -18.29 dB      8:42 18-Passacaglia
DR17      -0.33 dB   -24.38 dB      4:26 19-Passacaille pour Luc
--------------------------------------------------------------------------------

Number of tracks:  19
Official DR value: DR14

Samplerate:        88200 Hz
Channels:          2
Bits per sample:   24
Bitrate:           1954 kbps
Codec:             FLAC
================================================================================
Приватный:
Нет (DHT включён)
Размер:
930.12 Мб (975,297,496 байт) » файлов: 21
Участники:
3 раздают, 1 качают (4 участников всего)
Внешние участники:
--- [ Обновить ]
Скорость:
1.55 Мб/c 0/c
Есть вопросы - пишите личное сообщение пользователю M0p94ok.
14:00
23
Нет комментариев. Ваш будет первым!