Поиск

2018 Joshua Redman - Still Dreaming {Nonesuch 565047} [24-96]

2018 Joshua Redman - Still Dreaming {Nonesuch 565047} [24-96]
Издатель (лейбл):
Состав:
  • Joshua Redman Tenor Sax
  • Ron Miles Cornet
  • Scott Colley Bass
  • Brian Blade Drums

Год издания: 11 мая 2018
Номер по каталогу: 565047
Страна исполнителя: USA
Аудиокодек: FLAC (*.flac)
Разрядность: 24 bits / 96 kHz
Количество каналов: 2
Тип рипа: tracks
Продолжительность: 40:02
Источник (релизер): WEB
Наличие сканов: booklet.pdf

Треклист:
01. New Year
02. Unanimity
03. Haze and Aspirations
04. It's Not the Same
05. Blues For Charlie
06. Playing
07. Comme Il Faut
08. The Rest

Joshua Redman Quartet

 
Лог проверки качества
foobar2000 1.3.12 / Замер динамического диапазона (DR) 1.1.1
Дата отчёта:  2018-05-25 10:51:41
--------------------------------------------------------------------------------
Анализ:   Joshua Redman (feat. Ron Miles, Scott Colley & Brian Blade) / Still Dreaming
--------------------------------------------------------------------------------
DR         Пики         RMS           Продолжительность трека
--------------------------------------------------------------------------------
DR9       -0.30 дБ   -12.41 дБ      6:37 01-New Year
DR9       -0.37 дБ   -12.35 дБ      5:09 02-Unanimity
DR11      -0.39 дБ   -14.68 дБ      5:58 03-Haze And Aspirations
DR11      -0.40 дБ   -14.63 дБ      2:46 04-It's Not The Same
DR10      -0.34 дБ   -13.91 дБ      6:51 05-Blues For Charlie
DR10      -0.40 дБ   -13.46 дБ      3:18 06-Playing
DR8       -0.38 дБ   -12.49 дБ      3:27 07-Comme Il Faut
DR9       -0.39 дБ   -14.35 дБ      5:56 08-The Rest
--------------------------------------------------------------------------------
Количество треков: 8
Реальные значения DR: DR10
Частота:   96000 Гц
Каналов:   2
Разрядность:   24
Битрейт:   2691 кбит/с
Кодек:   FLAC
================================================================================

 

Скачивание доступно после регистрации!!
Приватный:
Нет (DHT включён)
Размер:
804.86 Мб (843,957,025 байт) » файлов: 11
Участники:
1 раздают, 0 качают (1 участников всего)
Внешние участники:
--- [ Обновить ]
Скорость:
0/c 33.86 Кб/c
14:24
45
RSS
Нет комментариев. Ваш будет первым!