Поиск

2018 Pierre Marcus Quartet - Pyrodance {jazz family} [24-88,2]

2018 Pierre Marcus Quartet - Pyrodance {jazz family} [24-88,2]
Стили:
Издатель (лейбл):
Состав:
  • Pierre Marcus - b
  • Baptiste Herbin - as, ss
  • Fred Perreard - p
  • Thomas Delor - d

Guest:

  • Irving Acao - ts (9, 10)

Формат записи/Источник записи: [TR24][OF]
Наличие водяных знаков: Нет
Год издания/переиздания диска: 2018
Продолжительность: 53:46
Наличие сканов в содержимом раздачи: Только обложка альбома
Контейнер: FLAC (*.flac)
Тип рипа: tracks
Разрядность: 24/88,2
Формат: PCM
Количество каналов: 2.0
Источник: qobuz.com

Треклист:
01. Le Berthé futé (3:36)
02. Giulia & Kattleya (6:19)
03. Longue attente (6:51)
04. Luboff (6:54)
05. 317 East 32nd Street (3:46)
06. Mestre Dana (4:17)
07. Papillon bungallow (3:37)
08. Paradise Sister (6:02)
09. Blues Minjeur (6:17)
10. Pyrodance (6:06)

 
Лог проверки качества
foobar2000 1.3.9 / Dynamic Range Meter 1.1.1
log date: 2018-05-24 17:11:25
--------------------------------------------------------------------------------
Analyzed: Pierre Marcus Quartet / Pyrodance
--------------------------------------------------------------------------------
DR         Peak         RMS     Duration Track
--------------------------------------------------------------------------------
DR8       -0.21 dB   -11.16 dB      3:36 01-Le Berthé futé
DR7       -0.51 dB   -11.09 dB      6:19 02-Giulia & Kattleya
DR7       -0.68 dB   -11.33 dB      6:51 03-Longue attente
DR10      -0.13 dB   -14.30 dB      6:54 04-Luboff
DR10      -0.18 dB   -12.97 dB      3:46 05-317 East 32nd Street
DR9       -0.15 dB   -11.65 dB      4:17 06-Mestre Dana
DR13      -1.32 dB   -18.14 dB      3:37 07-Papillon bungallow
DR8       -0.36 dB   -12.43 dB      6:02 08-Paradise Sister
DR8       -0.10 dB   -11.65 dB      6:17 09-Blues Minjeur
DR7       -0.10 dB    -9.10 dB      6:06 10-Pyrodance
--------------------------------------------------------------------------------
Number of tracks:  10
Official DR value: DR9
Samplerate:        88200 Hz
Channels:          2
Bits per sample:   24
Bitrate:           2872 kbps
Codec:             FLAC
================================================================================

 

Скачивание доступно после регистрации!!
Приватный:
Нет (DHT включён)
Размер:
1.03 Гб (1,104,044,399 байт) » файлов: 13
Участники:
1 раздают, 0 качают (1 участников всего)
Внешние участники:
--- [ Обновить ]
14:03
39
RSS
Нет комментариев. Ваш будет первым!