Поиск

2018 Diego Pinera - Despertando {ACT Music} [24-96]

2018 Diego Pinera - Despertando {ACT Music} [24-96]
Стили:
Издатель (лейбл):

Состав:
  • Diego Pinera - drums, percussion & steel drum
  • Tino Derado - piano & accordion
  • Omar Rodriguez Calvo - bass
  • Daniel Manrique-Smith - flutes
  • Julian Wasserfuhr - trumpet & flugelhorn

Recorded April 24 & 25, 2017 by Klaus Scheuermann at Hansa Studios Berlin
Mixed and mastered by Klaus Scheuermann
Produced by Siggi Loch

Формат записи/Источник записи: [TR24][OF]
Наличие водяных знаков: Нет
Год издания/переиздания диска: 2018
Продолжительность: 44:56
Наличие сканов в содержимом раздачи: Буклет PDF
Контейнер: FLAC (*.flac)
Тип рипа: tracks
Разрядность: 24/96
Формат: PCM
Количество каналов: 2.0
Источник: qobuz.com

Треклист:
01. Osvaldo por Nueve (4:07)
02. Caravan (3:32)
03. Despertando (4:33)
04. Yakarito Terere (5:05)
05. St. Thomas (3:54)
06. Last Tango In Paris (3:13)
07. La Comparsa (3:38)
08. Vulnerability (4:42)
09. A Puerto Padre (4:03)
10. Duerme Negrito (4:49)
11. Once Pasos (3:21)

 
Лог проверки качества
foobar2000 1.3.9 / Dynamic Range Meter 1.1.1
log date: 2018-05-23 18:26:36
--------------------------------------------------------------------------------
Analyzed: Diego Pinera / Despertando
--------------------------------------------------------------------------------
DR         Peak         RMS     Duration Track
--------------------------------------------------------------------------------
DR7       -0.70 dB    -9.55 dB      4:07 01-Osvaldo por Nueve
DR8       -0.70 dB   -10.10 dB      3:32 02-Caravan
DR9       -0.70 dB   -11.84 dB      4:33 03-Despertando
DR8       -0.70 dB   -10.37 dB      5:05 04-Yakarito Terere
DR7       -0.70 dB    -8.94 dB      3:54 05-St. Thomas
DR9       -0.70 dB   -11.70 dB      3:13 06-Last Tango In Paris
DR8       -0.70 dB    -9.84 dB      3:38 07-La Comparsa
DR9       -0.70 dB   -13.02 dB      4:42 08-Vulnerability
DR6       -0.70 dB    -9.56 dB      4:03 09-A Puerto Padre
DR9       -0.70 dB   -12.35 dB      4:49 10-Duerme Negrito
DR9       -0.70 dB   -12.30 dB      3:21 11-Once Pasos
--------------------------------------------------------------------------------
Number of tracks:  11
Official DR value: DR8
Samplerate:        96000 Hz
Channels:          2
Bits per sample:   24
Bitrate:           3053 kbps
Codec:             FLAC
================================================================================

 

Скачивание доступно после регистрации!!
Приватный:
Нет (DHT включён)
Размер:
994.72 Мб (1,043,040,069 байт) » файлов: 16
Участники:
1 раздают, 0 качают (1 участников всего)
Внешние участники:
--- [ Обновить ]
Скорость:
0/c 63.46 Кб/c
13:32
36
RSS
Нет комментариев. Ваш будет первым!