Поиск

2018 Chris Beier - Scarborough Variations {ACT Music} [24-44,1]

2018 Chris Beier - Scarborough Variations {ACT Music} [24-44,1]
Стили:
Издатель (лейбл):
Состав:
  • Chris Beier - piano solo

Recorded by Michael Hanf at Schüttbau, Rügheim, March 30 — April 1, 2009.
Mixed and mastered by Klaus Scheuermann, March 2018.
Produced by Chris Beier.

Формат записи/Источник записи: [TR24][OF]
Наличие водяных знаков: Нет
Год издания/переиздания диска: 2018
Продолжительность: 48:49
Контейнер: FLAC (*.flac)
Тип рипа: tracks
Разрядность: 24/44,1
Формат: PCM
Количество каналов: 2.0
Наличие сканов в содержимом раздачи: Буклет PDF
Источник: qobuz.com

Треклист:
01. Sacciapensieri (3:25)
02. Scarborough Variations (5:27)
03. Campane di l'alba (4:26)
04. Biscaya (3:29)
05. December Sun (4:04)
06. Ombra Serena (3:24)
07. Land Of Dawn (3:18)
08. Waldgate (4:38)
09. Ionian Days (3:11)
10. Cloud (4:47)
11. Terra Rossa (3:47)
12. Senanque (3:32)
13. Scarborough - Slight Return (1:21)

 
Лог проверки качества
foobar2000 1.3.9 / Dynamic Range Meter 1.1.1
log date: 2018-05-25 20:57:51
--------------------------------------------------------------------------------
Analyzed: Chris Beier / Scarborough Variations
--------------------------------------------------------------------------------
DR         Peak         RMS     Duration Track
--------------------------------------------------------------------------------
DR11      -1.19 dB   -16.92 dB      3:25 01-Sacciapensieri
DR13      -0.72 dB   -17.32 dB      5:27 02-Scarborough Variations
DR10      -0.72 dB   -13.40 dB      4:26 03-Campane di l'alba
DR13      -0.72 dB   -16.82 dB      3:29 04-Biscaya
DR14      -0.72 dB   -18.71 dB      4:04 05-December Sun
DR14      -3.99 dB   -20.86 dB      3:24 06-Ombra Serena
DR12      -0.72 dB   -15.75 dB      3:18 07-Land Of Dawn
DR11      -0.72 dB   -15.74 dB      4:38 08-Waldgate
DR11      -0.72 dB   -14.94 dB      3:11 09-Ionian Days
DR13      -0.83 dB   -18.14 dB      4:47 10-Cloud
DR10      -0.72 dB   -14.08 dB      3:47 11-Terra Rossa
DR12      -1.19 dB   -16.18 dB      3:32 12-Senanque
DR11      -0.76 dB   -16.62 dB      1:21 13-Scarborough - Slight Return
--------------------------------------------------------------------------------
Number of tracks:  13
Official DR value: DR12
Samplerate:        44100 Hz
Channels:          2
Bits per sample:   24
Bitrate:           1073 kbps
Codec:             FLAC
================================================================================

 

Скачивание доступно после регистрации!!
Приватный:
Нет (DHT включён)
Размер:
395.64 Мб (414,859,029 байт) » файлов: 18
Участники:
1 раздают, 0 качают (1 участников всего)
Внешние участники:
--- [ Обновить ]
Скорость:
0/c 283.00 байт/c
10:53
45
RSS
Нет комментариев. Ваш будет первым!