Поиск

2018 David Helbock's Random Control - Tour d'Horizon {ACT Music} [24-96]

2018 David Helbock's Random Control - Tour d'Horizon {ACT Music} [24-96]
Стили:
Издатель (лейбл):
Состав:
  • David Helbock - piano, electronics, percussion
  • Andreas Broger - saxophones, clarinets & various reed instruments
  • Johannes Bär - tuba, trumpet & various brass instruments

Recorded by Klaus Scheuermann at Hansa Studios Berlin, December 11 & 12, 2017.
Mixed and mastered by Klaus Scheuermann in February & March 2018.
Produced by Siggi Loch.

Формат записи/Источник записи: [TR24][OF]
Наличие водяных знаков: Нет
Год издания/переиздания диска: 2018
Продолжительность: 50:05
Наличие сканов в содержимом раздачи: Буклет PDF
Контейнер: FLAC (*.flac)
Тип рипа: tracks
Разрядность: 24/96
Формат: PCM
Количество каналов: 2.0
Источник: qobuz.com

Треклист:
01. African Marketplace (4:22)
02. Seven Days Of Falling (6:09)
03. Concierto de Aranjuez - Adagio (1:29)
04. Spain (3:30)
05. In A Sentimental Mood (5:17)
06. Mercy, Mercy, Mercy (2:20)
07. Blue In Green (3:19)
08. Watermelon Man (3:39)
09. My Song (5:10)
10. Utviklingssang (5:31)
11. Bolivia (4:07)
12. Take Five (5:12)

 
Лог проверки качества
foobar2000 1.3.9 / Dynamic Range Meter 1.1.1
log date: 2018-05-25 21:21:29
--------------------------------------------------------------------------------
Analyzed: David Helbock /  Tour D'horizon
--------------------------------------------------------------------------------
DR         Peak         RMS     Duration Track
--------------------------------------------------------------------------------
DR9       -0.72 dB   -11.98 dB      4:22 01-African Marketplace
DR10      -0.72 dB   -15.20 dB      6:09 02-Seven Days Of Falling
DR10      -0.75 dB   -16.20 dB      1:29 03-Concierto de Aranjuez - Adagio
DR10      -0.72 dB   -13.09 dB      3:30 04-Spain
DR11      -1.24 dB   -17.60 dB      5:17 05-In A Sentimental Mood
DR8       -0.72 dB   -12.41 dB      2:20 06-Mercy, Mercy, Mercy
DR10      -1.13 dB   -15.28 dB      3:19 07-Blue In Green
DR9       -0.72 dB   -12.86 dB      3:39 08-Watermelon Man
DR11      -0.72 dB   -16.32 dB      5:10 09-My Song
DR13      -2.84 dB   -22.36 dB      5:31 10-Utviklingssang
DR10      -0.72 dB   -13.97 dB      4:07 11-Bolivia
DR9       -0.72 dB   -13.85 dB      5:12 12-Take Five
--------------------------------------------------------------------------------
Number of tracks:  12
Official DR value: DR10
Samplerate:        96000 Hz
Channels:          2
Bits per sample:   24
Bitrate:           2679 kbps
Codec:             FLAC
================================================================================

 

Скачивание доступно после регистрации!!
Приватный:
Нет (DHT включён)
Размер:
968.49 Мб (1,015,538,671 байт) » файлов: 17
Участники:
1 раздают, 0 качают (1 участников всего)
Внешние участники:
--- [ Обновить ]
11:00
39
RSS
Нет комментариев. Ваш будет первым!