Поиск

2018 Tia Fuller - Diamond Cut {Mack Avenue} [24-88,2]

2018 Tia Fuller - Diamond Cut {Mack Avenue} [24-88,2]
Стили:
Издатель (лейбл):

Состав:
  • Tia Fuller - as
  • Adam Rogers - g
  • Sam Yahel - org (2, 7)
  • James Genus - b (1-3, 6, 10, 12)
  • Dave Holland - b (4, 5, 7-9, 11)
  • Bill Stewart - d (1-3, 6, 10, 12)
  • Jack DeJohnette - d (4, 5, 7-9)
  • Terri Lyne Carrington - perc (7, 8)

Формат записи/Источник записи: [TR24][OF]
Наличие водяных знаков: Нет
Год издания/переиздания диска: 2018
Продолжительность: 63:50
Наличие сканов в содержимом раздачи: Только обложка альбома
Контейнер: FLAC (*.flac)
Тип рипа: tracks
Разрядность: 24/88,2
Формат: PCM
Количество каналов: 2.0
Источник: qobuz.com

Треклист:
01. In The Trenches (6:19)
02. Save Your Love For Me (5:40)
03. I Love You (6:23)
04. Queen Intuition (6:01)
05. Joe’n Around (4:15)
06. Crowns Of Grey (5:56)
07. The Coming (6:59)
08. Soul Eyes (5:41)
09. Delight (5:03)
10. Fury Of Da’Mond (4:01)
11. Tears Of Santa Barbara (4:26)
12. Joe’n Around (alt tk) (3:07)

 
Лог проверки качества
foobar2000 1.3.9 / Dynamic Range Meter 1.1.1
log date: 2018-05-25 21:49:47
--------------------------------------------------------------------------------
Analyzed: Tia Fuller / Diamond Cut
--------------------------------------------------------------------------------
DR         Peak         RMS     Duration Track
--------------------------------------------------------------------------------
DR8       -1.04 dB   -11.10 dB      6:19 01-In The Trenches
DR9       -1.04 dB   -11.71 dB      5:40 02-Save Your Love For Me
DR7       -1.04 dB   -10.27 dB      6:23 03-I Love You
DR11      -1.02 dB   -13.75 dB      6:01 04-Queen Intuition
DR10      -1.04 dB   -14.52 dB      4:15 05-Joe’n Around
DR11      -1.02 dB   -14.18 dB      5:56 06-Crowns Of Grey
DR9       -1.04 dB   -12.12 dB      6:59 07-The Coming
DR10      -1.04 dB   -12.24 dB      5:41 08-Soul Eyes
DR9       -1.02 dB   -11.84 dB      5:03 09-Delight
DR8       -1.04 dB   -10.16 dB      4:01 10-Fury Of Da’Mond
DR10      -1.02 dB   -13.26 dB      4:26 11-Tears Of Santa Barbara
DR10      -1.04 dB   -13.03 dB      3:07 12-Joe’n Around (alt tk)
--------------------------------------------------------------------------------
Number of tracks:  12
Official DR value: DR9
Samplerate:        88200 Hz
Channels:          2
Bits per sample:   24
Bitrate:           2789 kbps
Codec:             FLAC
================================================================================

 

Скачивание доступно после регистрации!!
Приватный:
Нет (DHT включён)
Размер:
1.22 Гб (1,306,470,697 байт) » файлов: 15
Участники:
0 раздают, 0 качают (0 участников всего)
Внешние участники:
--- [ Обновить ]
11:12
39
RSS
Нет комментариев. Ваш будет первым!