Поиск

2018 Jeffrey Osborne - Worth It All {Artistry Music} [24-44,1]

2018 Jeffrey Osborne - Worth It All {Artistry Music} [24-44,1]
Стили:
Издатель (лейбл):

Треклист:

Формат записи/Источник записи: [TR24][OF]
Наличие водяных знаков: Нет
Год издания/переиздания диска: 25 мая 2018
Продолжительность: 51:38
Наличие сканов в содержимом раздачи: Только обложка альбома
Контейнер: FLAC (*.flac)
Тип рипа: tracks
Разрядность: 24/44,1
Формат: PCM
Количество каналов: 2.0
Источник: qobuz.com

Треклист:
01. Let A Brotha Know (4:17)
02. Greatest Night (4:18)
03. Just Can't Stand It (3:32)
04. Worth It All (4:23)
05. Stay The Way You Are (4:41)
06. I Want You (4:23)
07. Summer Nights (5:32)
08. Work It (4:06)
09. Saving My Love (4:14)
10. Can't Help Myself (3:53)
11. Your Lover (4:14)
12. That Man (4:07)

 
Лог проверки качества
foobar2000 1.3.9 / Dynamic Range Meter 1.1.1
log date: 2018-05-27 12:40:35
--------------------------------------------------------------------------------
Analyzed: Jeffrey Osborne / Worth It All
--------------------------------------------------------------------------------
DR         Peak         RMS     Duration Track
--------------------------------------------------------------------------------
DR8       -0.60 dB   -10.41 dB      4:17 01-Let A Brotha Know
DR7       -0.60 dB    -9.39 dB      4:18 02-Greatest Night
DR8       -0.60 dB   -10.16 dB      3:32 03-Just Can't Stand It
DR9       -0.50 dB   -12.02 dB      4:23 04-Worth It All
DR6       -0.60 dB    -8.21 dB      4:41 05-Stay The Way You Are
DR8       -0.60 dB   -10.06 dB      4:23 06-I Want You
DR8       -0.60 dB   -10.65 dB      5:32 07-Summer Nights
DR7       -0.60 dB   -10.02 dB      4:06 08-Work It
DR7       -0.60 dB    -9.10 dB      4:14 09-Saving My Love
DR7       -0.60 dB    -9.09 dB      3:53 10-Can't Help Myself
DR8       -0.60 dB    -9.93 dB      4:14 11-Your Lover
DR8       -0.60 dB    -9.48 dB      4:07 12-That Man
--------------------------------------------------------------------------------
Number of tracks:  12
Official DR value: DR8
Samplerate:        44100 Hz
Channels:          2
Bits per sample:   24
Bitrate:           1724 kbps
Codec:             FLAC
================================================================================

 

По всем вопросам пишите личное сообщение пользователю M0p94ok.
11:06
592
Нет комментариев. Ваш будет первым!