Поиск

2018 Enemy - Enemy {Edition} [24-44,1]

2018 Enemy - Enemy {Edition} [24-44,1]
Стили:
Состав:
  • Kit Downes - piano
  • Frans Petter Eldh - double bass
  • James Maddren - drums

Recorded on 17th and 18th October 2016 by George Murphy at Eastcote Studios, London.
Mixed by Frans Petter Eldh at Galatea Studios, Berlin in November 2017.
Mastered by Klaus Scheuermann in December 2017

Формат записи/Источник записи: [TR24][OF]
Наличие водяных знаков: Нет
Год издания/переиздания диска: 2018
Издатель (лейбл): Edition Records
Продолжительность: 44:08
Наличие сканов в содержимом раздачи: Только обложка альбома
Контейнер: FLAC (*.flac)
Тип рипа: tracks
Разрядность: 24/44,1
Формат: PCM
Количество каналов: 2.0
Источник: qobuz.com

Треклист:
01. Prospect Of K (4:19)
02. Race The Sun (3:19)
03. Fogo (4:29)
04. Brandy (3:50)
05. Low Hanging Fruit (1:43)
06. Jinn (3:40)
07. Children With Torches (4:49)
08. Ruster (3:26)
09. Politix (8:46)
10. Faster Than Light (5:46)

 
Лог проверки качества
 
foobar2000 1.3.9 / Dynamic Range Meter 1.1.1
log date: 2018-05-27 14:39:54
--------------------------------------------------------------------------------
Analyzed: Enemy / Enemy
--------------------------------------------------------------------------------
DR         Peak         RMS     Duration Track
--------------------------------------------------------------------------------
DR7       -0.70 dB   -10.03 dB      4:19 01-Prospect Of K
DR7       -0.70 dB    -9.37 dB      3:19 02-Race The Sun
DR7       -0.70 dB   -11.08 dB      4:29 03-Fogo
DR7       -0.70 dB   -10.73 dB      3:50 04-Brandy
DR8       -0.70 dB   -10.12 dB      1:43 05-Low Hanging Fruit
DR8       -0.70 dB   -12.86 dB      3:40 06-Jinn
DR7       -0.70 dB    -9.51 dB      4:49 07-Children With Torches
DR9       -0.70 dB   -12.40 dB      3:26 08-Ruster
DR7       -0.70 dB   -10.06 dB      8:46 09-Politix
DR7       -0.70 dB    -9.46 dB      5:46 10-Faster Than Light
--------------------------------------------------------------------------------
Number of tracks:  10
Official DR value: DR7
Samplerate:        44100 Hz
Channels:          2
Bits per sample:   24
Bitrate:           1571 kbps
Codec:             FLAC
================================================================================

 

Скачивание доступно после регистрации!!
Приватный:
Нет (DHT включён)
Размер:
496.84 Мб (520,969,711 байт) » файлов: 13
Участники:
1 раздают, 0 качают (1 участников всего)
Внешние участники:
--- [ Обновить ]
12:26
29
RSS
Нет комментариев. Ваш будет первым!