Поиск

2018 Allan Harris - The Genius Of Eddie Jefferson {Resilience Music} [24-44,1]

2018 Allan Harris - The Genius Of Eddie Jefferson {Resilience Music} [24-44,1]
Стили:
Состав:
  • Allan Harris - vocals
  • Eric Reed - piano
  • George DeLancey - bass
  • Willie Jones III - drums
  • Richie Cole - alto saxophone
  • Ralph Moore - tenor saxophone

Формат записи/Источник записи: [TR24][OF]
Наличие водяных знаков: Нет
Год издания/переиздания диска: 2018
Издатель (лейбл): Resilience Music
Продолжительность: 40:55
Наличие сканов в содержимом раздачи: Только обложка альбома
Контейнер: FLAC (*.flac)
Тип рипа: tracks
Разрядность: 24/44,1
Формат: PCM
Количество каналов: 2.0
Источник: qobuz.com

Треклист:
01. So What (4:00)
02. Sister Sadie (4:09)
03. Dexter Digs In (3:31)
04. Billy's Bounce (3:54)
05. Body And Soul (4:31)
06. Jeannine (4:18)
07. Filthy McNasty (3:30)
08. Lester's Trip To The Moon (3:51)
09. Memphis (3:54)
10. Waltz For A Rainy Bebop Evening (5:17)

 
Лог проверки качества
foobar2000 1.3.9 / Dynamic Range Meter 1.1.1
log date: 2018-05-27 15:01:42
--------------------------------------------------------------------------------
Analyzed: Allan Harris / The Genius Of Eddie Jefferson
--------------------------------------------------------------------------------
DR         Peak         RMS     Duration Track
--------------------------------------------------------------------------------
DR9       -0.52 dB   -12.64 dB      4:00 01-So What
DR10      -0.52 dB   -12.78 dB      4:09 02-Sister Sadie
DR10      -0.52 dB   -12.34 dB      3:31 03-Dexter Digs In
DR9       -0.52 dB   -11.36 dB      3:54 04-Billy's Bounce
DR9       -0.52 dB   -12.48 dB      4:31 05-Body And Soul
DR10      -0.55 dB   -13.33 dB      4:18 06-Jeannine
DR11      -0.53 dB   -13.45 dB      3:30 07-Filthy McNasty
DR9       -0.52 dB   -11.54 dB      3:51 08-Lester's Trip To The Moon
DR8       -0.52 dB   -10.77 dB      3:54 09-Memphis
DR11      -0.52 dB   -14.30 dB      5:17 10-Waltz For A Rainy Bebop Evening
--------------------------------------------------------------------------------
Number of tracks:  10
Official DR value: DR10
Samplerate:        44100 Hz
Channels:          2
Bits per sample:   24
Bitrate:           1474 kbps
Codec:             FLAC
================================================================================

 

Скачивание доступно после регистрации!!
Приватный:
Нет (DHT включён)
Размер:
460.64 Мб (483,017,406 байт) » файлов: 13
Участники:
1 раздают, 0 качают (1 участников всего)
Внешние участники:
--- [ Обновить ]
Скорость:
0/c 31.07 Кб/c
12:36
45
RSS
Нет комментариев. Ваш будет первым!