Поиск

2018 Sylvie Courvoisier Trio - D’Agala {Intakt CD 300} [24-96]

2018 Sylvie Courvoisier Trio - D’Agala {Intakt CD 300} [24-96]
Стили:
Издатель (лейбл):

Треклист:

Формат записи/Источник записи: [TR24][OF]
Наличие водяных знаков: Нет
Год издания: 2018
Номер по каталогу: CD 300
Страна исполнителя: Switzerland/USA
Аудиокодек: FLAC (*.flac)
Разрядность: 24 bits / 96 kHz
Количество каналов: 2
Тип рипа: tracks
Продолжительность: 54:12
Источник (релизер): WEB
Наличие сканов: нет

Треклист:
01. Imprint Double (for Antoine Courvoisier)
02. Bourgeois’s Spider (for Louise Bourgeois)
03. Éclats for Ornette (for Ornette Coleman)
04. Simone (for Simone Veil)
05. Pierino Porcospino (for Charlie)
06. D’Agala (for Geri Allen)
07. Circumbent (for Martin Puryear)
08. Fly Whisk (for Irène Schweizer)
09. South Side Rules (for John Abercrombie)

SYLVIE COURVOISIER TRIO

 
Лог проверки качества
foobar2000 1.3.12 / Замер динамического диапазона (DR) 1.1.1
Дата отчёта:  2018-05-28 10:09:11
--------------------------------------------------------------------------------
Анализ:   Sylvie Courvoisier Trio / D’Agala
--------------------------------------------------------------------------------
DR         Пики         RMS           Продолжительность трека
--------------------------------------------------------------------------------
DR13      -0.65 дБ   -17.52 дБ      7:41 01-Imprint Double (For Antoine Courvoisier)
DR11      -0.65 дБ   -16.49 дБ      7:33 02-Bourgeois's Spider (For Louise Bourgeois)
DR10      -0.65 дБ   -13.60 дБ      4:14 03-Eclats for Ornette (For Ornette Coleman)
DR13      -0.65 дБ   -17.74 дБ      4:02 04-Simone (For Simone Veil)
DR13      -0.65 дБ   -16.06 дБ      4:19 05-Pierino Porcospino (For Charlie)
DR14      -0.65 дБ   -18.79 дБ      8:13 06-D'agala (For Geri Allen)
DR11      -0.65 дБ   -15.02 дБ      3:54 07-Circumbent (For Martin Puryear)
DR11      -0.65 дБ   -15.84 дБ      7:54 08-Fly Whisk (For Irene Schweizer)
DR12      -0.65 дБ   -15.11 дБ      6:23 09-South Side Rules (For John Abercrombie)
--------------------------------------------------------------------------------
Количество треков: 9
Реальные значения DR: DR12
Частота:   96000 Гц
Каналов:   2
Разрядность:   24
Битрейт:   3054 кбит/с
Кодек:   FLAC
================================================================================

 

Приватный:
Нет (DHT включён)
Размер:
1.10 Гб (1,180,326,092 байт) » файлов: 12
Участники:
0 раздают, 0 качают (0 участников всего)
Внешние участники:
7 раздают, 2 качают (9 участников всего) [ Обновить ]
Скорость:
0/c 42.74 Кб/c
Есть вопросы - пишите личное сообщение пользователю M0p94ok.
12:49
162
Нет комментариев. Ваш будет первым!