Вы используете незарегистрированную версию компонента "Вкладки"!

Поиск

2018 Dexter Gordon - Live at The Playboy Jazz Festival {Run Out Groove ROGV-063} [LP 24-96]

2018 Dexter Gordon - Live at The Playboy Jazz Festival {Run Out Groove ROGV-063} [LP 24-96]
Стили:
Дата записи диска:
20 июня 1982
Место записи:
Hollywood Bowl for the Playboy Jazz Festival
Дата издания диска:
23 ноября 2018
Номер по каталогу:
ROGV-063
Носитель:
LP
Тип рипа:
tracks+.cue
Битрейт аудио:
lossless
Время звучания:
00:40:15
Наличие сканов:
web
Страна-производитель диска (релиза):
USA
Релизёр (источник):
M0p94ok
Лог проверки качества
foobar2000 1.5.5 / Dynamic Range Meter 1.1.1
log date: 2020-09-06 23:00:23

--------------------------------------------------------------------------------
Analyzed: Dexter Gordon / Live at The Playboy Jazz Festival
--------------------------------------------------------------------------------

DR         Peak         RMS     Duration Track
--------------------------------------------------------------------------------
DR13      -3.00 dB   -18.91 dB      0:30 01-Introduction
DR12      -0.44 dB   -14.74 dB     10:30 02-Fried Bananas
DR12      -0.36 dB   -15.17 dB      8:53 03-Bag's Groove
DR13      -0.49 dB   -16.81 dB     12:13 04-You've Changed
DR11      -0.32 dB   -14.46 dB      8:13 05-The Blues
--------------------------------------------------------------------------------

Number of tracks:  5
Official DR value: DR12

Samplerate:        96000 Hz
Channels:          2
Bits per sample:   24
Bitrate:           2987 kbps
Codec:             FLAC
================================================================================
Any questions - support@pro-jazz.com. Есть вопросы - support@pro-jazz.com
23:17
247
Нет комментариев. Ваш будет первым!