Поиск

1972 Nathan Davis - 6th Sense In The 11th House {Segue SEG-1002} [LP 24-48]

1972 Nathan Davis - 6th Sense In The 11th House {Segue SEG-1002} [LP 24-48]
Стили:
Место записи:
WRS Recording Studios, Pittsburgh, Pennsylvania, USA
Номер по каталогу:
SEG-1002
Носитель:
WEB
Формат:
PCM
Тип рипа:
tracks+.cue
Контейнер:
FLAC (*.flac)
Количество каналов:
2.0
Разрядность/ЧД:
24/48
Битрейт аудио:
lossless
Время звучания:
00:39:21
Наличие сканов:
web
Страна-производитель диска (релиза):
USA
Релизёр (источник):
M0p94ok

This album is available on our DC++ hub: dc.pro-jazz.com
Этот альбом доступен на нашем DC++ хабе: dc.pro-jazz.com

Треклист:

A1 6th Sense In The 11th House 5:55
A2 Tribute To Malcom 9:43
A3 Yo Thang 3:30
B1 This For Richard 6:20
B2 C'Est Pour Moi 4:17
B3 The Shadow Of Your Smile 9:32

Состав:
  • Bass – Richard Davis (2)
  • Cover [Design] – Pat Dinucci
  • Drums – Alan Dawson
  • Engineer [Recording and Mixdown] – Olaf Kuuskler
  • Liner Notes – Bill Powell (5)
  • Photography By [Cover] – Harry Walter
  • Piano – Roland Hanna
  • Producer – George Bacasa
  • Tenor Saxophone, Soprano Saxophone, Bass Clarinet, Flute, Directed By [Musical Director] – Nathan Davis
Лог проверки качества
foobar2000 1.5.5 / Dynamic Range Meter 1.1.1
log date: 2020-10-07 14:04:38

--------------------------------------------------------------------------------
Analyzed: Nathan Davis / 6th Sense In The 11th House
--------------------------------------------------------------------------------

DR         Peak         RMS     Duration Track
--------------------------------------------------------------------------------
DR13      -2.76 dB   -20.68 dB      5:55 01-6th Sense In The 11th House
DR13      -3.55 dB   -20.31 dB      9:45 02-Tribute To Malcom
DR13      -1.96 dB   -18.48 dB      3:32 03-Yo Thang
DR13      -3.09 dB   -19.95 dB      6:20 04-This For Richard
DR12      -1.80 dB   -20.55 dB      4:19 05-C'Est Pour Moi
DR13      -0.02 dB   -20.16 dB      9:34 06-The Shadow Of Your Smile
--------------------------------------------------------------------------------

Number of tracks:  6
Official DR value: DR13

Samplerate:        48000 Hz
Channels:          2
Bits per sample:   24
Bitrate:           1478 kbps
Codec:             FLAC
================================================================================
14:25
1134
Нет комментариев. Ваш будет первым!