Вы используете незарегистрированную версию компонента "Вкладки"!

Поиск

1971 Django Reinhardt - Django Reinhardt {RCA 6886 808} [LP 24-96]

1971 Django Reinhardt - Django Reinhardt {RCA 6886 808} [LP 24-96]
Дата издания диска:
1971
Издатель (лейбл):
Номер по каталогу:
6886 808
Носитель:
WEB
Формат:
PCM
Тип рипа:
tracks+.cue
Контейнер:
FLAC (*.flac)
Количество каналов:
2.0
Разрядность/ЧД:
24/96
Битрейт аудио:
lossless
Время звучания:
00:41:30
Наличие сканов:
нет
Страна-производитель диска (релиза):
France
Релизёр (источник):
M0p94ok
Лог проверки качества
foobar2000 1.5.5 / Dynamic Range Meter 1.1.1
log date: 2020-10-19 13:18:06

--------------------------------------------------------------------------------
Analyzed: Django Reinhardt / Django Reinhardt
--------------------------------------------------------------------------------

DR         Peak         RMS     Duration Track
--------------------------------------------------------------------------------
DR10      -3.97 dB   -17.37 dB      4:04 01-Nuages
DR9       -2.00 dB   -13.69 dB      4:04 02-Sophisticated Lady
DR11      -2.12 dB   -16.40 dB      4:18 03-Beyond The Sea
DR12      -1.36 dB   -15.72 dB      2:27 04-Swing 42
DR9       -3.69 dB   -17.71 dB      3:20 05-Django's Castel
DR13      -0.88 dB   -18.00 dB      2:45 06-I Got Rythm
DR12      -2.11 dB   -17.41 dB      2:54 07-Swing Guitars
DR11      -4.38 dB   -18.43 dB      2:47 08-Djangology
DR11      -4.06 dB   -17.93 dB      4:06 09-St Louis Blues
DR8       -4.87 dB   -16.44 dB      4:11 10-Stormy Weather
DR12      -2.41 dB   -17.62 dB      2:37 11-Minor Swing
DR11      -4.37 dB   -18.66 dB      4:02 12-Honey Suckle Rose
--------------------------------------------------------------------------------

Number of tracks:  12
Official DR value: DR11

Samplerate:        96000 Hz
Channels:          2
Bits per sample:   24
Bitrate:           2489 kbps
Codec:             FLAC
================================================================================
Any questions - support@pro-jazz.com. Есть вопросы - support@pro-jazz.com
15:25
372
Нет комментариев. Ваш будет первым!