Поиск

1977 Byard Lancaster - Exodus {Philly Jazz PJ-1001} [LP 24-48]

1977 Byard Lancaster - Exodus {Philly Jazz PJ-1001} [LP 24-48]
Стили:
Дата записи диска:
16 апреля; 4 мая 1977
Место записи:
WXPN Jazz Awards Concert, Philadelphia, USA
Номер по каталогу:
PJ-1001
Носитель:
WEB
Тип рипа:
tracks+.cue
Битрейт аудио:
lossless
Время звучания:
00:37:29
Наличие сканов:
web
Страна-производитель диска (релиза):
USA
Релизёр (источник):
M0p94ok
Треклист:

1. Something Children Can Do / Mr. P.C. 12:40
2. All Of My Life 5:42
3. Exodus 13:09
4. Philly Jazz 6:01

Лог проверки качества
foobar2000 1.5.5 / Dynamic Range Meter 1.1.1
log date: 2020-09-06 13:36:06

--------------------------------------------------------------------------------
Analyzed: Byard Lancaster / Exodus
--------------------------------------------------------------------------------

DR         Peak         RMS     Duration Track
--------------------------------------------------------------------------------
DR12      -0.10 dB   -16.64 dB     12:40 01-Something Children Can Do / Mr. P.C.
DR13      -2.21 dB   -20.84 dB      5:42 02-All Of My Life
DR16      -1.82 dB   -22.42 dB     13:09 03-Exodus
DR12      -1.20 dB   -20.27 dB      6:01 04-Philly Jazz
--------------------------------------------------------------------------------

Number of tracks:  4
Official DR value: DR13

Samplerate:        48000 Hz
Channels:          2
Bits per sample:   24
Bitrate:           1475 kbps
Codec:             FLAC
================================================================================
Приватный:
Нет (DHT включён)
Размер:
409.72 Мб (429,617,983 байт) » файлов: 6
Участники:
10 раздают, 0 качают (10 участников всего)
Внешние участники:
--- [ Обновить ]
For power users only: no seeders - write personal message to M0p94ok. Для power user: нет сидеров - пишите в личку M0p94ok.
13:49
165
Нет комментариев. Ваш будет первым!