Поиск

2017 Heads Of State - Four In One {Smoke Sessions} [24-96]

2017 Heads Of State - Four In One {Smoke Sessions} [24-96]
Стили:
Издатель (лейбл):
Треклист:

Формат записи/Источник записи: [TR24][OF]
Наличие водяных знаков: Нет
Год издания: 2017
Жанр: Jazz
Издатель (лейбл): Smoke Sessions Records
Продолжительность: 01:12:22
Наличие сканов в содержимом раздачи: Только обложка альбома
Контейнер: FLAC (*.flac)
Тип рипа: tracks
Разрядность: 24/96
Формат: PCM
Количество каналов: 2.0
Источник (релизер): prostudiomasters.com

Треклист:
01. Four in One [7:18]
02. And He alled Himself a Messenger [4:26]
03. Dance Cadaverous [10:01]
04. Moose the Mooche [5:28]
05. Aloysius [6:37]
06. The Day You Said Goodbye [7:54]
07. Milestones [4:48]
08. Keep the Master in Mind [6:57]
09. Someone to Watch Over Me [8:12]
10. Sippin at Bells [3:56]
11. Freedom Jazz Dance [6:38]

 
Лог проверки качества
foobar2000 1.3.17 / Замер динамического диапазона (DR) 1.1.1
Дата отчёта:  2018-06-23 00:00:34
--------------------------------------------------------------------------------
Анализ:   Gary Bartz, Larry Willis, David Williams, Al Foster / Four in One
--------------------------------------------------------------------------------
DR         Пики         RMS           Продолжительность трека
--------------------------------------------------------------------------------
DR10      -0.60 дБ   -12.24 дБ      7:18 01-Four in One
DR8       -0.60 дБ    -9.68 дБ      4:26 02-And He Called Himself a Messenger
DR10      -0.60 дБ   -13.40 дБ     10:02 03-Dance Cadaverous
DR8       -0.60 дБ   -10.56 дБ      5:29 04-Moose the Mooche
DR8       -0.60 дБ   -10.57 дБ      6:38 05-Aloysius
DR11      -0.60 дБ   -14.78 дБ      7:55 06-The Day You Said Goodbye
DR8       -0.60 дБ   -10.60 дБ      4:49 07-Milestones
DR10      -0.60 дБ   -12.42 дБ      6:58 08-Keep the Master in Mind
DR11      -0.60 дБ   -13.93 дБ      8:13 09-Someone to Watch over Me
DR9       -0.60 дБ   -10.59 дБ      3:57 10-Sippin' at Bells
DR9       -0.60 дБ   -11.54 дБ      6:38 11-Freedom Jazz Dance
--------------------------------------------------------------------------------
Количество треков: 11
Реальные значения DR: DR9
Частота:  96000 Гц
Каналов:  2
Разрядность:   24
Битрейт:  2810 кбит/с
Кодек:   FLAC
================================================================================

 

Приватный:
Нет (DHT включён)
Размер:
1.37 Гб (1,474,657,135 байт) » файлов: 13
Участники:
1 раздают, 2 качают (3 участников всего)
Внешние участники:
1 раздают, 0 качают (1 участников всего) [ Обновить ]
Нет сидеров - пишите личное сообщение M0p94ok. Не нравятся торренты? Участники группы Pro-jazz Club могут заказать прямую ссылку на скачивание из облака.
No seeders - write a personal message to M0p94ok. Don't like torrents? Members of Pro-jazz Club group can order a direct download link from the cloud.
16:33
120
Нет комментариев. Ваш будет первым!