Поиск

1977 Lalomie Washburn - My Music Is Hot {Mercury} [24-192]

1977 Lalomie Washburn - My Music Is Hot {Mercury} [24-192]
Стили:
Издатель (лейбл):
Треклист:

Формат записи/Источник записи: [TR24][OF]
Наличие водяных знаков: Нет
Издание: Remastered
Год издания/переиздания диска: 1977/2018
Продолжительность: 36:04
Наличие сканов в содержимом раздачи: Только обложка альбома
Контейнер: FLAC (*.flac)
Тип рипа: tracks
Разрядность: 24/192
Формат: PCM
Количество каналов: 2.0
Источник: qobuz.com

Треклист:
01. Give Me Love With The Music (5:36)
02. Double Funkin' (4:58)
03. My Love Is Hot (Caliente) (6:43)
04. Man Power (Can You Do It) (5:20)
05. Shades Of Blue (4:00)
06. Freaky Strangeness (5:17)
07. What's Love (4:09)

 
Лог проверки качества
foobar2000 1.3.9 / Dynamic Range Meter 1.1.1
log date: 2018-06-23 00:33:56
--------------------------------------------------------------------------------
Analyzed: Lalomie Washburn / My Music Is Hot
--------------------------------------------------------------------------------
DR         Peak         RMS     Duration Track
--------------------------------------------------------------------------------
DR13      -2.44 dB   -17.93 dB      5:36 01-Give Me Love With The Music
DR13      -1.23 dB   -17.10 dB      4:58 02-Double Funkin'
DR14      -1.66 dB   -18.31 dB      6:43 03-My Love Is Hot (Caliente)
DR13      -3.91 dB   -19.39 dB      5:20 04-Man Power (Can You Do It)
DR12      -4.93 dB   -20.28 dB      4:00 05-Shades Of Blue
DR13      -4.33 dB   -19.85 dB      5:17 06-Freaky Strangeness
DR12      -4.97 dB   -19.86 dB      4:09 07-What's Love
--------------------------------------------------------------------------------
Number of tracks:  7
Official DR value: DR13
Samplerate:        192000 Hz
Channels:          2
Bits per sample:   24
Bitrate:           4908 kbps
Codec:             FLAC
================================================================================

 

Приватный:
Нет (DHT включён)
Размер:
1.26 Гб (1,350,189,864 байт) » файлов: 10
Участники:
3 раздают, 2 качают (5 участников всего)
Внешние участники:
1 раздают, 0 качают (1 участников всего) [ Обновить ]
Никого нет на раздаче - пишите личное сообщение M0p94ok
No seeders - write personal message to M0p94ok
19:25
95
Нет комментариев. Ваш будет первым!