Поиск

2018 Chuck Leavell - Chuck Gets Big (with The Frankfurt Radio Big Band) {BMG} [24-44,1]

2018 Chuck Leavell - Chuck Gets Big (with The Frankfurt Radio Big Band) {BMG} [24-44,1]
Стили:
Издатель (лейбл):
Треклист:

Формат записи/Источник записи: [TR24][OF]
Наличие водяных знаков: Нет
Год издания/переиздания диска: 2018
Продолжительность: 73:02
Наличие сканов в содержимом раздачи: Только обложка альбома
Контейнер: FLAC (*.flac)
Тип рипа: tracks
Разрядность: 24/44,1
Формат: PCM
Количество каналов: 2.0
Источник: highresaudio.com

Треклист:
01. Route 66 (4:48)
02. King Grand (6:15)
03. Losing Hand (4:48)
04. Honky Tonk Woman (4:26)
05. Living In A Dream (6:38)
06. Blue Rose (8:18)
07. Southbound (5:06)
08. Tumbling Dice (3:45)
09. Ashley (5:48)
10. Statesboro Blues (5:40)
11. Georgia On My Mind (5:12)
12. Compared To What (8:22)
13. Tomato Jam (Bonus Track) (3:54)

 
Лог проверки качества
foobar2000 1.3.9 / Dynamic Range Meter 1.1.1
log date: 2018-06-23 01:56:06
--------------------------------------------------------------------------------
Analyzed: Chuck Leavell / Chuck Gets Big (with The Frankfurt Radio Big Band)
--------------------------------------------------------------------------------
DR         Peak         RMS     Duration Track
--------------------------------------------------------------------------------
DR10      -1.00 dB   -12.40 dB      4:48 01-Route 66
DR10      -1.00 dB   -12.89 dB      6:15 02-King Grand
DR11      -1.00 dB   -15.70 dB      4:48 03-Losing Hand
DR9       -1.00 dB   -12.53 dB      4:26 04-Honky Tonk Woman
DR10      -1.00 dB   -13.95 dB      6:38 05-Living In A Dream
DR11      -1.00 dB   -15.44 dB      8:18 06-Blue Rose
DR10      -1.00 dB   -12.28 dB      5:06 07-Southbound
DR9       -1.00 dB   -11.89 dB      3:45 08-Tumbling Dice
DR11      -1.00 dB   -15.78 dB      5:48 09-Ashley
DR10      -1.00 dB   -13.02 dB      5:40 10-Statesboro Blues
DR11      -1.00 dB   -16.57 dB      5:12 11-Georgia On My Mind
DR11      -1.00 dB   -14.40 dB      8:22 12-Compared To What
DR12      -1.00 dB   -14.71 dB      3:54 13-Tomato Jam (Bonus Track)
--------------------------------------------------------------------------------
Number of tracks:  13
Official DR value: DR11
Samplerate:        44100 Hz
Channels:          2
Bits per sample:   24
Bitrate:           1576 kbps
Codec:             FLAC
================================================================================

 

Приватный:
Нет (DHT включён)
Размер:
832.70 Мб (873,149,992 байт) » файлов: 16
Участники:
8 раздают, 1 качают (9 участников всего)
Внешние участники:
2 раздают, 1 качают (3 участников всего) [ Обновить ]
For power users only: no seeders - write to support@pro-jazz.com. Для power user: нет сидеров - пишите на support@pro-jazz.com.
19:37
248
Нет комментариев. Ваш будет первым!