Поиск

2002 Steve Tibbetts - A Man About A Horse {ECM} [24-44,1]

2002 Steve Tibbetts - A Man About A Horse {ECM} [24-44,1]
Стили:
Издатель (лейбл):

Треклист:

Формат записи/Источник записи: [TR24][OF]
Наличие водяных знаков: Нет
Издание: Remastered
Год издания/переиздания диска: 2002/2018
Продолжительность: 44:50
Наличие сканов в содержимом раздачи: Только обложка альбома
Контейнер: FLAC (*.flac)
Тип рипа: tracks
Разрядность: 24/44,1
Формат: PCM
Количество каналов: 2.0
Источник: highresaudio.com

Треклист:
01. Lupra (4:43)
02. Red Temple (6:39)
03. Black Temple (9:58)
04. Burning Temple (4:00)
05. Glass Everywhere (3:58)
06. Lochana (3:39)
07. Chandoha (5:55)
08. Koshala (5:57)

 
Лог проверки качества
foobar2000 1.3.9 / Dynamic Range Meter 1.1.1
log date: 2018-06-23 02:40:53
--------------------------------------------------------------------------------
Analyzed: Steve Tibbetts / A Man About A Horse
--------------------------------------------------------------------------------
DR         Peak         RMS     Duration Track
--------------------------------------------------------------------------------
DR13      -1.35 dB   -18.94 dB      4:43 01-Lupra
DR14      -1.43 dB   -20.96 dB      6:39 02-Red Temple
DR13      -0.20 dB   -17.30 dB      9:58 03-Black Temple
DR13      -2.81 dB   -23.81 dB      4:00 04-Burning Temple
DR11      -0.20 dB   -16.74 dB      3:58 05-Glass Everywhere
DR13      -1.44 dB   -18.51 dB      3:39 06-Lochana
DR16      -1.19 dB   -20.97 dB      5:55 07-Chandoha
DR13      -1.40 dB   -16.94 dB      5:57 08-Koshala
--------------------------------------------------------------------------------
Number of tracks:  8
Official DR value: DR13
Samplerate:        44100 Hz
Channels:          2
Bits per sample:   24
Bitrate:           1374 kbps
Codec:             FLAC
================================================================================

 

Состав:
  • Steve Tibbetts - guitars, percussion
  • Marc Anderson - percussion
  • Marcus Wise - percussion
  • Jim Anton - bass
Download available for power users only.
18:47
613
Нет комментариев. Ваш будет первым!