Поиск

2016 Cyrille Aimée - Let's Get Lost {Mack Avenue} [24-88,2]

2016 Cyrille Aimée - Let's Get Lost {Mack Avenue} [24-88,2]
Стили:
Издатель (лейбл):

Треклист:

01. Live Alone And Like It (2:36)
02. There's A Lull In My Life (3:47)
03. Estrellitas y Duendes (3:20)
04. Lazy Afternoon (4:53)
05. Three Little Words (2:32)
06. T'es Beau tu Sais (3:18)
07. Let's Get Lost (2:35)
08. Samois a Moi (4:20)
09. Nine More Minutes (2:53)
10. Laverne Walk (2:20)
11. That Old Feeling (2:38)
12. Each Day (feat. Matt Simons) (3:26)
13. Words (3:42)
14. Well You Needn't (Bonus Track) (3:16)

Состав:
  • Cyrille Aimée - vocals
  • Adrien Moignard - guitar
  • Michael Valeanu - guitar
  • Sam Anning - bass
  • Raj Jayaweera - drums
Доп. инфо:

Формат записи/Источник записи: [TR24][OF]
Наличие водяных знаков: Нет
Год издания/переиздания диска: 2016
Продолжительность: 45:38
Наличие сканов в содержимом раздачи: Только обложка альбома
Контейнер: FLAC (*.flac)
Тип рипа: tracks
Разрядность: 24/88,2
Формат: PCM
Количество каналов: 2.0
Лог проверки качества
Источник: qobuz.com

Лог проверки качества
foobar2000 1.3.9 / Dynamic Range Meter 1.1.1
log date: 2018-06-23 11:28:51
--------------------------------------------------------------------------------
Analyzed: Cyrille Aimée / Let's Get Lost
--------------------------------------------------------------------------------
DR         Peak         RMS     Duration Track
--------------------------------------------------------------------------------
DR10      -0.38 dB   -13.47 dB      2:36 01-Live Alone And Like It
DR10      -0.36 dB   -13.65 dB      3:47 02-There's A Lull In My Life
DR11      -0.40 dB   -13.75 dB      3:20 03-Estrellitas y Duendes
DR11      -0.33 dB   -14.67 dB      4:53 04-Lazy Afternoon
DR9       -0.40 dB   -11.58 dB      2:32 05-Three Little Words
DR12      -0.36 dB   -14.40 dB      3:18 06-T'es Beau tu Sais
DR9       -0.36 dB   -11.80 dB      2:35 07-Let's Get Lost
DR10      -0.98 dB   -14.89 dB      4:20 08-Samois a Moi
DR10      -0.39 dB   -14.04 dB      2:53 09-Nine More Minutes
DR11      -0.40 dB   -13.07 dB      2:20 10-Laverne Walk
DR14      -0.40 dB   -18.48 dB      2:38 11-That Old Feeling
DR7       -0.32 dB   -10.73 dB      3:26 12-Each Day (feat. Matt Simons)
DR8       -0.36 dB   -12.09 dB      3:42 13-Words
DR9       -0.35 dB   -11.32 dB      3:16 14-Well You Needn't (Bonus Track)
--------------------------------------------------------------------------------
Number of tracks:  14
Official DR value: DR10
Samplerate:        88200 Hz
Channels:          2
Bits per sample:   24
Bitrate:           2407 kbps
Codec:             FLAC
================================================================================
Download available for power users only.
18:57
552
Нет комментариев. Ваш будет первым!