Поиск

2018 Janne Mark with Arve Henriksen - Pilgrim {ACT Music} [24-96]

2018 Janne Mark with Arve Henriksen - Pilgrim {ACT Music} [24-96]
Стили:
Издатель (лейбл):

Треклист:

Формат записи/Источник записи: [TR24][OF]
Наличие водяных знаков: Нет
Год издания/переиздания диска: 2018
Продолжительность: 43:51
Наличие сканов в содержимом раздачи: Буклет PDF
Контейнер: FLAC (*.flac)
Тип рипа: tracks
Разрядность: 24/96
Формат: PCM
Количество каналов: 2.0
Источник: qobuz.com

Треклист:
01. Igen berørt (Nadverhymne) (4:17)
02. Verden er en salme (4:48)
03. Pilgrim (5:40)
04. Intro (0:48)
05. Gå stille og tyst (4:28)
06. Elsket favnet, husket savnet (3:57)
07. Syng for alverdens urolige hjerter (5:36)
08. Vinter (5:29)
09. Julen i hjertet (4:59)
10. I verden uden for verden (3:48)

 
Лог проверки качества
foobar2000 1.3.9 / Dynamic Range Meter 1.1.1
log date: 2018-06-23 12:14:18
--------------------------------------------------------------------------------
Analyzed: Janne Mark with Arve Henriksen / Pilgrim
--------------------------------------------------------------------------------
DR         Peak         RMS     Duration Track
--------------------------------------------------------------------------------
DR10      -1.14 dB   -14.23 dB      4:17 01-Igen berørt (Nadverhymne)
DR10      -1.14 dB   -15.00 dB      4:48 02-Verden er en salme
DR10      -1.14 dB   -14.65 dB      5:40 03-Pilgrim
DR11      -6.99 dB   -24.50 dB      0:48 04-Intro
DR11      -1.14 dB   -15.36 dB      4:28 05-Gå stille og tyst
DR8       -1.14 dB   -11.39 dB      3:57 06-Elsket favnet, husket savnet
DR12      -1.14 dB   -15.55 dB      5:36 07-Syng for alverdens urolige hjerter
DR11      -1.14 dB   -15.23 dB      5:29 08-Vinter
DR10      -1.14 dB   -14.73 dB      4:59 09-Julen i hjertet
DR11      -3.63 dB   -19.09 dB      3:48 10-I verden uden for verden
--------------------------------------------------------------------------------
Number of tracks:  10
Official DR value: DR10
Samplerate:        96000 Hz
Channels:          2
Bits per sample:   24
Bitrate:           2400 kbps
Codec:             FLAC
================================================================================

 

Состав:
  • Janne Mark - vocals
  • Arve Henriksen - trumpet
  • Henrik Gunde Pedersen - piano, celeste
  • Esben Eyermann - bass
  • Jesper Uno Kofoed - drums
  • Gustaf Ljunggren - lap steel

Recorded May 4 & 5, 2017 by Lars Nilsson at Nilento Studios, Kållered and by Boe Larsen at MillFactory Studios, Copenhagen, May — June 2017, Sweden.
Mixed and mastered by Lars Nilsson.
Produced by Esben Eyermann and Janne Mark.

По всем вопросам пишите личное сообщение пользователю M0p94ok.
21:09
590
Нет комментариев. Ваш будет первым!