Поиск

2009 Etta Cameron And Nikolaj Hess With Friends - Etta (2015) {Stunt} [24-96]

2009 Etta Cameron And Nikolaj Hess With Friends - Etta (2015) {Stunt} [24-96]
Стили:
Издатель (лейбл):

Формат записи/Источник записи: [TR24][OF]
Наличие водяных знаков: Нет
Год издания/переиздания диска: 2009/2015
Продолжительность: 59:58
Наличие сканов в содержимом раздачи: Буклет PDF
Контейнер: FLAC (*.flac)
Тип рипа: tracks
Разрядность: 24/96
Формат: PCM
Количество каналов: 2.0
Источник: prostudiomasters.com

Треклист:
01. What A Wonderful World (7:06)
02. Summertime (4:35)
03. You've Changed (5:14)
04. Love Me Or Leave Me (3:47)
05. Smile (5:40)
06. Out Of This World (3:37)
07. Motherless Child (3:20)
08. God Bless The Child (3:57)
09. Careless Love (5:19)
10. What Is This Thing Called Love (3:20)
11. You Are My Sunshine (6:14)
12. Where Do I Begin (3:38)
13. You've Got A Friend (4:11)

 
Лог проверки качества
foobar2000 1.3.9 / Dynamic Range Meter 1.1.1
log date: 2018-06-23 13:06:25
--------------------------------------------------------------------------------
Analyzed: Etta Cameron And Nikolaj Hess With Friends / Etta
--------------------------------------------------------------------------------
DR         Peak         RMS     Duration Track
--------------------------------------------------------------------------------
DR11      -0.82 dB   -16.97 dB      7:06 01-What A Wonderful World
DR10      -0.74 dB   -13.67 dB      4:35 02-Summertime
DR8       -0.69 dB   -13.13 dB      5:14 03-You've Changed
DR9        0.00 dB   -12.98 dB      3:47 04-Love Me Or Leave Me
DR10      -0.17 dB   -13.55 dB      5:40 05-Smile
DR9       -0.64 dB   -12.42 dB      3:37 06-Out Of This World
DR10      -0.67 dB   -14.73 dB      3:20 07-Motherless Child
DR11      -0.52 dB   -15.04 dB      3:57 08-God Bless The Child
DR9       -0.79 dB   -13.19 dB      5:19 09-Careless Love
DR11      -0.82 dB   -13.64 dB      3:20 10-What Is This Thing Called Love
DR11      -0.64 dB   -15.21 dB      6:14 11-You Are My Sunshine
DR11      -0.39 dB   -15.64 dB      3:38 12-Where Do I Begin
DR12      -0.37 dB   -18.26 dB      4:11 13-You've Got A Friend
--------------------------------------------------------------------------------
Number of tracks:  13
Official DR value: DR10
Samplerate:        96000 Hz
Channels:          2
Bits per sample:   24
Bitrate:           2946 kbps
Codec:             FLAC
================================================================================

 

Состав:
  • Etta Cameron - vocals
  • Nikolaj Hess - piano
  • Palle Mikkelborg - trumpet
  • Jens Sondergaard - alto saxophone
  • Klavs Hovman - bass
  • Marilyn Mazur - drums, percussion

Rec.: Sun Studio, Copenhagen, Denmark, May 2009.

22:15
930
Нет комментариев. Ваш будет первым!