Поиск

2018 Cyrille Aimee - Live {Mack Avenue} [24-48]

2018 Cyrille Aimee - Live {Mack Avenue} [24-48]
Стили:
Издатель (лейбл):
Треклист:

Формат записи/Источник записи: [TR24][OF]
Наличие водяных знаков: Нет
Год издания/переиздания диска: 2018
Продолжительность: 57:47
Наличие сканов в содержимом раздачи: Буклет PDF
Контейнер: FLAC (*.flac)
Тип рипа: tracks
Разрядность: 24/48
Формат: PCM
Количество каналов: 2.0
Источник: qobuz.com

Треклист:
01. It's A Good Day (4:31)
02. Nuit Blanche (5:56)
03. Si Tu Vois Ma Mère (6:12)
04. Live Alone And Like It (8:09)
05. Wanna Be Startin' Somethin' (4:52)
06. Off The Wall (5:11)
07. Day By Day (3:57)
08. It's Over Now (Well, You Needn't) (7:50)
09. Three Little Words (4:13)
10. Each Day (6:57)

 
Лог проверки качества
foobar2000 1.3.9 / Dynamic Range Meter 1.1.1
log date: 2018-06-22 13:07:43
--------------------------------------------------------------------------------
Analyzed: Cyrille Aimée / Live
--------------------------------------------------------------------------------
DR         Peak         RMS     Duration Track
--------------------------------------------------------------------------------
DR9       -0.74 dB   -12.97 dB      4:31 01-It's A Good Day
DR10      -0.74 dB   -15.05 dB      5:56 02-Nuit Blanche
DR13      -0.77 dB   -18.99 dB      6:12 03-Si Tu Vois Ma Mère
DR8       -0.74 dB   -12.40 dB      8:09 04-Live Alone And Like It
DR12      -0.74 dB   -15.87 dB      4:52 05-Wanna Be Startin' Somethin'
DR9       -0.74 dB   -12.73 dB      5:11 06-Off The Wall
DR9       -0.74 dB   -12.62 dB      3:57 07-Day By Day
DR8       -0.74 dB   -12.65 dB      7:50 08-It's Over Now (Well, You Needn't)
DR10      -0.74 dB   -12.77 dB      4:13 09-Three Little Words
DR8       -0.74 dB   -12.12 dB      6:57 10-Each Day
--------------------------------------------------------------------------------
Number of tracks:  10
Official DR value: DR10
Samplerate:        48000 Hz
Channels:          2
Bits per sample:   24
Bitrate:           1744 kbps
Codec:             FLAC
================================================================================

 

Приватный:
Нет (DHT включён)
Размер:
701.71 Мб (735,793,880 байт) » файлов: 14
Участники:
8 раздают, 1 качают (9 участников всего)
Внешние участники:
2 раздают, 1 качают (3 участников всего) [ Обновить ]
Никого нет на раздаче - пишите личное сообщение M0p94ok
No seeders - write personal message to M0p94ok
13:42
81
Нет комментариев. Ваш будет первым!