Поиск

2016 Miles Davis and Friends - All that Jazz, Vol. 59: Cool Dimensions {Jube Legends} [24-48]

2016 Miles Davis and Friends - All that Jazz, Vol. 59: Cool Dimensions {Jube Legends} [24-48]
Стили:
Дата издания диска:
1 апреля 2016
Издатель (лейбл):
Номер по каталогу:
Jube-NML2064
Носитель:
WEB
Формат:
PCM
Тип рипа:
tracks
Контейнер:
FLAC (*.flac)
Количество каналов:
2.0
Разрядность/ЧД:
24/48
Битрейт аудио:
lossless
Время звучания:
01:03:01
Наличие сканов:
только обложка

01 - Move 02:31
02 - Jeru 03:10
03 - Moon Dreams 03:18
04 - Venus de milo 03:10
05 - Deception 02:46
06 - Budo 02:31
07 - Rouge 03:14
08 - Godchild 03:08
09 - Rocker 03:05
10 - Israel 02:16
11 - Boplicity 02:59
12 - Dr. Jackle 08:52
13 - Bitty Ditty 06:35
14 - Minor March 08:14
15 - Blues Changes 07:12

Состав:
 

1 Miles Davis[trumpet], Lee Konitz[alto saxophone], Gerry Mulligan[baritone saxophone]

2 Miles Davis[trumpet], Gerry Mulligan[baritone saxophone], Lee Konitz[alto saxophone]

3 Miles Davis[trumpet], Gerry Mulligan[baritone saxophone], Lee Konitz[alto saxophone]

4 Miles Davis[trumpet], Gerry Mulligan[baritone saxophone], Lee Konitz[alto saxophone]

5 Miles Davis[trumpet], Gerry Mulligan[baritone saxophone], Lee Konitz[alto saxophone]

6 Miles Davis[trumpet], Gerry Mulligan[baritone saxophone], Lee Konitz[alto saxophone]

7 Miles Davis[trumpet], Gerry Mulligan[baritone saxophone], Lee Konitz[alto saxophone]

8 Miles Davis[trumpet], Gerry Mulligan[baritone saxophone], Lee Konitz[alto saxophone]

9 Miles Davis[trumpet], Gerry Mulligan[baritone saxophone], Lee Konitz[alto saxophone]

10 Miles Davis[trumpet], Gerry Mulligan[baritone saxophone], Lee Konitz[alto saxophone]

11 Miles Davis[trumpet], Gerry Mulligan[baritone saxophone], Lee Konitz[alto saxophone]

12 Miles Davis[trumpet], Gerry Mulligan[baritone saxophone], Lee Konitz[alto saxophone], Milt Jackson[vibraphone]

13 Miles Davis[trumpet], Milt Jackson[vibraphone]

14 Miles Davis[trumpet], Milt Jackson[vibraphone]

15 Miles Davis[trumpet], Milt Jackson[vibraphone]

Лог проверки качества
foobar2000 1.6.2 / Dynamic Range Meter 1.1.1
log date: 2021-12-06 19:50:52
--------------------------------------------------------------------------------
Analyzed: Miles Davis / All that Jazz, Vol. 59: Miles Davis and Friends - Cool Dimensions (Remastered 2016)
--------------------------------------------------------------------------------
DR         Peak         RMS     Duration Track
--------------------------------------------------------------------------------
DR12      -1.00 dB   -14.27 dB      2:32 01-Move
DR12      -1.00 dB   -14.64 dB      3:11 02-Jeru
DR10      -1.00 dB   -14.36 dB      3:18 03-Moon Dreams
DR10      -1.00 dB   -14.08 dB      3:10 04-Venus de milo
DR10      -1.00 dB   -13.11 dB      2:46 05-Deception
DR12      -1.00 dB   -15.78 dB      2:32 06-Budo
DR11      -1.00 dB   -13.51 dB      3:15 07-Rouge
DR12      -1.67 dB   -15.80 dB      3:08 08-Godchild
DR12      -1.00 dB   -14.56 dB      3:05 09-Rocker
DR11      -1.00 dB   -14.00 dB      2:16 10-Israel
DR12      -1.00 dB   -15.90 dB      3:00 11-Boplicity
DR12      -1.00 dB   -15.53 dB      8:52 12-Dr. Jackle
DR11      -1.00 dB   -14.49 dB      6:35 13-Bitty Ditty
DR11      -1.00 dB   -14.57 dB      8:15 14-Minor March
DR12      -2.05 dB   -15.97 dB      7:12 15-Blues Changes
--------------------------------------------------------------------------------
Number of tracks:  15
Official DR value: DR11
Samplerate:        48000 Hz
Channels:          2
Bits per sample:   24
Bitrate:           689 kbps
Codec:             FLAC
================================================================================
Скачивание доступно после регистрации!!
Приватный:
Нет (DHT включён)
Размер:
351.83 Мб (368,919,191 байт) » файлов: 19
Участники:
0 раздают, 0 качают (0 участников всего)
Внешние участники:
2 раздают, 1 качают (3 участников всего) [ Обновить ]
01:28
345
Нет комментариев. Ваш будет первым!