Поиск

1975 John Maddocks Jazz Maniacs - Good Vibrations (2022) {Cherry Red} [24-44.1]

1975 John Maddocks Jazz Maniacs - Good Vibrations (2022) {Cherry Red} [24-44.1]
Стили:
Носитель:
WEB
Формат:
PCM
Тип рипа:
tracks
Контейнер:
FLAC (*.flac)
Количество каналов:
2.0
Разрядность/ЧД:
24/44,1
Битрейт аудио:
lossless
Наличие сканов:
только обложка

01 - Good Vibrations 06:16
02 - Old Fashioned Love 04:32
03 - The Chant 03:44
04 - Mrs Robinson 04:27
05 - Mahogany Hall Mood 06:45
06 - Chattanooga Stomp 04:00
07 - Jesus Christ Superstar 06:39
08 - Dead Man Blues 03:47
09 - Manhattan Spiritual 05:41
10 - Good Morning Blues 04:16

Состав:
  • John Maddocks — clarinet
Лог проверки качества
foobar2000 1.4.3 / Dynamic Range Meter 1.1.1
log date: 2022-03-10 19:38:35
--------------------------------------------------------------------------------
Analyzed: John Maddocks Jazz Maniacs, John Maddocks Jazz Maniacs, John Maddocks Jazz Maniacs, John Maddocks Jazz Maniacs, John Maddocks Jazz Maniacs, John Maddocks Jazz Maniacs, John Maddocks Jazz Maniacs, John Maddocks Jazz Maniacs, John Maddocks Jazz Maniacs, John Maddocks Jazz Maniacs / Good Vibrations
--------------------------------------------------------------------------------
DR         Peak         RMS     Duration Track
--------------------------------------------------------------------------------
DR9       -0.04 dB   -11.93 dB      6:17 01-Good Vibrations
DR7       -3.01 dB   -12.39 dB      4:32 02-Old Fashioned Love
DR9       -1.02 dB   -11.20 dB      3:44 03-The Chant
DR8       -3.02 dB   -12.16 dB      4:27 04-Mrs Robinson
DR9       -3.03 dB   -15.23 dB      6:45 05-Mahogany Hall Mood
DR8       -3.01 dB   -11.97 dB      4:01 06-Chattanooga Stomp
DR7       -2.04 dB   -10.50 dB      6:39 07-Jesus Christ Superstar
DR9       -2.12 dB   -13.80 dB      3:47 08-Dead Man Blues
DR8       -1.62 dB   -11.31 dB      5:42 09-Manhattan Spiritual
DR8       -2.04 dB   -12.11 dB      4:17 10-Good Morning Blues
--------------------------------------------------------------------------------
Number of tracks:  10
Official DR value: DR8
Samplerate:        44100 Hz
Channels:          2
Bits per sample:   24
Bitrate:           1543 kbps
Codec:             FLAC
================================================================================
01:57
324
Нет комментариев. Ваш будет первым!