Поиск

2022 Jun Miyake - Whispered Garden {Yellowbird} [24-48]

2022 Jun Miyake - Whispered Garden {Yellowbird} [24-48]
Дата издания диска:
18 февраля 2022
Носитель:
WEB
Формат:
PCM
Тип рипа:
tracks
Контейнер:
FLAC (*.flac)
Количество каналов:
2.0
Разрядность/ЧД:
24/48
Битрейт аудио:
lossless
Время звучания:
00:53:20
Наличие сканов:
только обложка

01. Untrodden Sphere [1:44]
02. Hollow Bones [4:11]
03. Counterflect [3:18]
04. The Jamestown Bridge [3:21]
05. Paradica [2:18]
06. Vinicius Cantuaria, Jun Miyake & Bruno Capinan - Farois Distantes [3:30]
07. Undreamt Chapter [4:37]
08. 1979 [3:35]
09. Fluctations [2:22]
10. Seshat [4:20]
11. Vinicius Cantuaria & Jun Miyake - Parece Ate Carnaval [2:49]
12. Progeny [5:29]
13. Jun Miyake & Arthur H. - Le Reve De L'eau [2:28]
14. Witness [1:45]
15. Time Song Time [4:45]
16. Jun Miyake & Bruno Capinan - Arraiada [2:47]

Состав:
  • Jun Miyake
  • Lisa Papineau
  • Arthur H
  • Bruno Capinan
  • Vinicious Cantuaria
Лог проверки качества
foobar2000 1.6.10 / Dynamic Range Meter 1.1.1
log date: 2022-02-18 22:42:04
--------------------------------------------------------------------------------
Analyzed: Jun Miyake & Arthur H. / Whispered Garden (1)
          Jun Miyake & Bruno Capinan / Whispered Garden (2)
          Jun Miyake / Whispered Garden (3-14)
          Vinicius Cantuaria & Jun Miyake / Whispered Garden (15)
          Vinicius Cantuaria, Jun Miyake & Bruno Capinan / Whispered Garden (16)
--------------------------------------------------------------------------------
DR         Peak         RMS     Duration Track
--------------------------------------------------------------------------------
DR9       -0.30 dB   -12.41 dB      2:28 13-Le Reve De L'eau
DR8       -0.30 dB   -10.63 dB      2:47 16-Arraiada
DR11      -1.63 dB   -15.48 dB      1:44 01-Untrodden Sphere
DR10      -0.30 dB   -13.15 dB      4:11 02-Hollow Bones
DR8       -0.10 dB   -10.02 dB      3:18 03-Counterflect
DR11      -0.30 dB   -13.48 dB      3:21 04-The Jamestown Bridge
DR11      -0.30 dB   -14.18 dB      2:18 05-Paradica
DR7       -0.10 dB    -9.35 dB      4:37 07-Undreamt Chapter
DR7       -0.30 dB    -9.36 dB      3:35 08-1979
DR7       -0.30 dB    -8.83 dB      2:22 09-Fluctations
DR8       -0.30 dB   -11.39 dB      4:20 10-Seshat
DR10      -0.30 dB   -13.46 dB      5:29 12-Progeny
DR8       -0.30 dB   -10.18 dB      1:45 14-Witness
DR11      -0.30 dB   -14.86 dB      4:45 15-Time Song Time
DR9       -0.30 dB   -10.59 dB      2:49 11-Parece Ate Carnaval
DR9       -0.20 dB   -10.85 dB      3:30 06-Farois Distantes
--------------------------------------------------------------------------------
Number of tracks:  16
Official DR value: DR9
Samplerate:        48000 Hz
Channels:          2
Bits per sample:   24
Bitrate:           1725 kbps
Codec:             FLAC
================================================================================
Приватный:
Нет (DHT включён)
Размер:
592.35 Мб (621,126,845 байт) » файлов: 18
Участники:
0 раздают, 0 качают (0 участников всего)
Внешние участники:
7 раздают, 2 качают (9 участников всего) [ Обновить ]
21:25
314
Нет комментариев. Ваш будет первым!