Вы используете незарегистрированную версию компонента "Вкладки"!

Поиск

2016 Marc Perrenoud - Hamra {Unit} [24-44,1]

2016 Marc Perrenoud - Hamra {Unit} [24-44,1]
Битрейт аудио:
lossless
Доп. инфо:

Формат записи/Источник записи: [TR24][OF]
Наличие водяных знаков: Нет
Год издания/переиздания диска: 2016
Издатель (лейбл): Unit Records
Продолжительность: 00:41:18
Наличие сканов в содержимом раздачи: Только обложка альбома
Источник (релизер): qobuz

Контейнер: FLAC (*.flac)
Тип рипа: tracks
Разрядность: 24/44,1
Формат: PCM
Количество каналов: 2.0
Доп. информация: http://marcperrenoud.com/

Лог проверки качества
foobar2000 1.1.15 / Dynamic Range Meter 1.1.1
log date: 2020-06-22 12:56:51

--------------------------------------------------------------------------------
Analyzed: Marc Perrenoud / Hamra
--------------------------------------------------------------------------------

DR         Peak         RMS     Duration Track
--------------------------------------------------------------------------------
DR11      -0.05 dB   -15.51 dB      4:19 01-All the Things You Are
DR11      -0.23 dB   -18.48 dB      5:11 02-Tyomnaya Noch (Dark Is the Night)
DR11      -0.04 dB   -14.69 dB      4:09 03-Nica's Dream
DR14      -0.47 dB   -19.68 dB      4:25 04-Clouds for Dima
DR11      -0.62 dB   -14.28 dB      3:33 05-Vestry Lamento
DR11      -0.33 dB   -16.15 dB      3:58 06-Conversation with Nino
DR9       -0.03 dB   -12.04 dB      2:47 07-Quintes (Variations on 12345)
DR14      -1.70 dB   -22.24 dB      4:27 08-Naima
DR11      -0.05 dB   -15.46 dB      4:54 09-Rythmh Games
DR16      -1.60 dB   -26.15 dB      3:34 10-Le Roi et l’Oiseau
--------------------------------------------------------------------------------

Number of tracks:  10
Official DR value: DR12

Samplerate:        44100 Hz
Channels:          2
Bits per sample:   24
Bitrate:           504 kbps
Codec:             FLAC
================================================================================
Any questions - support@pro-jazz.com. Есть вопросы - support@pro-jazz.com
12:51
267
Нет комментариев. Ваш будет первым!