Вы используете незарегистрированную версию компонента "Вкладки"!

Поиск

1958 Chico Hamilton – Gongs East! (2020) {RevOla} [24-96]

1958 Chico Hamilton – Gongs East! (2020) {RevOla} [24-96]
Стили:
Дата записи диска:
29-30 декабря 1958
Место записи:
Radio Recorders, Hollywood, CA
Издатель (лейбл):
Битрейт аудио:
lossless
Доп. инфо:

Формат записи/Источник записи: [TR24][OF]
Наличие водяных знаков: Нет
Издание: Remastered
Год издания/переиздания диска: 1958/2020
Издатель (лейбл): RevOla
Продолжительность: 00:38:25
Наличие сканов в содержимом раздачи: Только обложка
Источник: qobuz
Контейнер: FLAC (*.flac)
Тип рипа: tracks
Разрядность: 24/96
Формат: PCM
Количество каналов: 2.0

Лог проверки качества
foobar2000 1.3.16 / Dynamic Range Meter 1.1.1
log date: 2020-04-29 20:18:35

––––––––––––––––––––––––––––––––––––––––
Analyzed: Chico Hamilton / Gongs East!
––––––––––––––––––––––––––––––––––––––––

DR Peak RMS Duration Track
––––––––––––––––––––––––––––––––––––––––
DR12 0.00 dB -15.08 dB 3:07 01-Beyond The Blue Horizon (Remastered)
DR13 -0.46 dB -18.14 dB 4:03 02-Where I Live (Remastered)
DR11 0.00 dB -14.83 dB 4:51 03-Gongs East (Remastered)
DR12 -2.28 dB -19.26 dB 4:43 04-I Gave My Love A Cherry (Remastered)
DR12 0.00 dB -15.19 dB 3:07 05-Good Grief, Dennis! (Remastered)
DR11 -1.68 dB -19.52 dB 3:01 06-Long Ago (And Far Away) (Remastered)
DR12 0.00 dB -14.03 dB 3:00 07-Tuesday at Two (Remastered)
DR13 0.00 dB -16.10 dB 5:07 08-Nature by Emerson (Remastered)
DR12 0.00 dB -13.59 dB 4:06 09-Far East (Remastered)
DR12 -2.65 dB -18.74 dB 3:20 10-Passion Flower (Remastered)
––––––––––––––––––––––––––––––––––––––––

Number of tracks: 10
Official DR value: DR12

Samplerate: 96000 Hz
Channels: 2
Bits per sample: 24
Bitrate: 2521 kbps
Codec: FLAC
================================================================================
Any questions - support@pro-jazz.com. Есть вопросы - support@pro-jazz.com
16:44
255
Нет комментариев. Ваш будет первым!