Вы используете незарегистрированную версию компонента "Вкладки"!

Поиск

1969 Billy Taylor Trio - Sleeping Bee (2020) {MPS} [24-88,2]

1969 Billy Taylor Trio - Sleeping Bee (2020) {MPS} [24-88,2]
Стили:
Дата записи диска:
апрель 1969
Место записи:
RCA Recording Studios, Studio A, New York, NY
Издатель (лейбл):
Битрейт аудио:
lossless
Доп. инфо:

Формат записи/Источник записи: [TR24][OF]
Наличие водяных знаков: Нет
Год издания/переиздания диска: 1969/2014/2020
Издатель (лейбл): MPS
Продолжительность: 00:42:52
Наличие сканов в содержимом раздачи: Только обложка альбома

Контейнер: FLAC (*.flac)
Тип рипа: tracks
Разрядность: 24/88,2
Формат: PCM
Количество каналов: 2.0

Источник (релизер): https://www.highresaudio.com/en/album/view/e8d78j/billy-taylor-trio-sleeping-bee

Лог проверки качества
foobar2000 1.3.16 / Dynamic Range Meter 1.1.1
log date: 2020-06-04 03:31:09

--------------------------------------------------------------------------------
Analyzed: Billy Taylor Trio / Sleeping Bee
--------------------------------------------------------------------------------

DR         Peak         RMS     Duration Track
--------------------------------------------------------------------------------
DR13      -2.34 dB   -17.50 dB      4:46 01-La petite mambo
DR15      -2.39 dB   -20.77 dB      5:43 02-Theodora
DR14      -1.94 dB   -17.99 dB      4:20 03-Paraphrase
DR13      -0.63 dB   -16.98 dB      5:12 04-Bye Y'all
DR13      -2.20 dB   -17.51 dB      3:28 05-Don't Go Down South
DR14      -1.23 dB   -17.52 dB      5:33 06-Brother, Where Are You?
DR13      -2.30 dB   -19.07 dB      8:23 07-There Will Never Be Another You
DR14      -4.32 dB   -21.53 dB      5:27 08-A Sleepin' Bee
--------------------------------------------------------------------------------

Number of tracks:  8
Official DR value: DR13

Samplerate:        88200 Hz
Channels:          2
Bits per sample:   24
Bitrate:           2460 kbps
Codec:             FLAC
================================================================================
Any questions - support@pro-jazz.com. Есть вопросы - support@pro-jazz.com
11:59
271
Нет комментариев. Ваш будет первым!