Поиск

1956-1962 Ahmad Jamal Trio - Complete Argo Sessions Vol.3 (2018) {Crazy Warthog} [24-44,1]

1956-1962 Ahmad Jamal Trio - Complete Argo Sessions Vol.3 (2018) {Crazy Warthog} [24-44,1]
Стили:
Издатель (лейбл):
Битрейт аудио:
lossless
Доп. инфо:

Формат записи/Источник записи: [TR24][OF]
Издание: Remastered
Год издания/переиздания диска: 2018
Издатель (лейбл): Crazy Warthog Media
Продолжительность: 01:10:15
Наличие сканов в содержимом раздачи: Нет

Контейнер: FLAC (*.flac)
Тип рипа: tracks
Разрядность: 24/44,1
Количество каналов: 2.0

Источник (релизер): Qobuz

Лог проверки качества
foobar2000 1.3.7 / Dynamic Range Meter 1.1.1
log date: 2019-07-02 04:59:08

--------------------------------------------------------------------------------
Analyzed: Ahmad Jamal / Complete Ahmad Jamal Trio Argo Sessions Vol.3 1956-1962
--------------------------------------------------------------------------------

DR         Peak         RMS     Duration Track
--------------------------------------------------------------------------------
DR16      -0.01 dB   -19.26 dB      4:06 01-Taboo
DR15      -0.01 dB   -18.50 dB      3:43 02-Should I
DR17      -0.01 dB   -20.62 dB      4:14 03-Stompin' at the Savoy
DR19      -0.01 dB   -22.30 dB      3:29 04-The Girl Next Door
DR17      -0.01 dB   -21.13 dB      3:43 05-I Wish I Knew
DR15      -0.13 dB   -18.68 dB      4:51 06-Cheek to Cheek
DR16      -0.15 dB   -22.91 dB      3:22 07-Autumn in New York
DR16      -0.31 dB   -20.05 dB      3:53 08-Secret Love
DR16      -0.01 dB   -18.14 dB      2:19 09-Squatty Roo
DR14      -8.81 dB   -26.08 dB      2:38 10-That's All
DR12       0.00 dB   -14.24 dB      5:02 11-This Can't Be Love
DR14       0.00 dB   -16.48 dB      7:45 12-Autumn Leaves
DR15       0.00 dB   -18.39 dB      3:55 13-Ahmad's Blues
DR14       0.00 dB   -16.80 dB      3:57 14-Old Devil Moon
DR17      -0.01 dB   -19.07 dB      3:08 15-Seleritus
DR15       0.00 dB   -17.19 dB      4:15 16-It Could Happen to You
DR13      -1.32 dB   -17.24 dB      2:56 17-Ivy
DR14       0.00 dB   -16.89 dB      3:07 18-Tater Pie
--------------------------------------------------------------------------------

Number of tracks:  18
Official DR value: DR15

Samplerate:        44100 Hz
Channels:          2
Bits per sample:   24
Bitrate:           1425 kbps
Codec:             FLAC
================================================================================
No seeders - write personal message to M0p94ok. Any questions - support@pro-jazz.com.
Нет сидеров - пишите в личку M0p94ok. Есть вопросы - support@pro-jazz.com
08:40
257
Нет комментариев. Ваш будет первым!