Вы используете незарегистрированную версию компонента "Вкладки"!

Поиск

2019 Blossom Dearie - It's The Lovely...Blossom Dearie! Vol 2 {RevOla} [24-44,1]

2019 Blossom Dearie - It's The Lovely...Blossom Dearie! Vol 2 {RevOla} [24-44,1]
Стили:
Издатель (лейбл):
Битрейт аудио:
lossless
Доп. инфо:

Формат записи/Источник записи: [TR24][OF]
Издание: Remastered
Год издания/переиздания диска: 2019
Издатель (лейбл): RevOla
Продолжительность: 01:17:04
Наличие сканов в содержимом раздачи: Нет

Контейнер: FLAC (*.flac)
Тип рипа: tracks
Разрядность: 24/44,1
Количество каналов: 2.0

Источник (релизер): Qobuz

Лог проверки качества
foobar2000 1.4.3 / Dynamic Range Meter 1.1.1
log date: 2020-06-14 23:48:20

--------------------------------------------------------------------------------
Analyzed: Blossom Dearie / It's The Lovely...Blossom Dearie! Vol 2
--------------------------------------------------------------------------------

DR         Peak         RMS     Duration Track
--------------------------------------------------------------------------------
DR13      -5.51 dB   -22.02 dB      2:14 01-Deed I Do!
DR13      -5.39 dB   -22.39 dB      2:47 02-Loverman
DR12      -3.65 dB   -19.02 dB      2:30 03-Everything I've Got
DR14      -4.03 dB   -20.42 dB      2:13 04-Comment Allez Vous?
DR14      -5.33 dB   -21.46 dB      3:29 05-More Than You Know
DR14      -6.38 dB   -22.92 dB      3:02 06-Thou Swell!
DR12      -6.51 dB   -22.48 dB      3:12 07-It Might As Well Be Spring
DR13      -6.72 dB   -21.79 dB      2:24 08-Tout Doucement
DR13      -3.71 dB   -19.33 dB      2:16 09-You For Me
DR14      -3.93 dB   -22.32 dB      3:23 10-Now At Last
DR14      -4.56 dB   -21.63 dB      2:08 11-I Hear Music
DR14      -4.58 dB   -23.70 dB      3:22 12-Wait till You See Her
DR14      -4.86 dB   -21.86 dB      2:47 13-I Won't Dance
DR13      -4.87 dB   -23.64 dB      3:08 14-A Fine Spring Morning
DR15      -2.40 dB   -21.44 dB      2:03 15-Just One of Those Things
DR14      -5.74 dB   -23.52 dB      4:33 16-Like Someone In Love
DR16      -3.32 dB   -23.09 dB      2:29 17-Between the Devil and the Deep Blue Sea
DR15      -5.97 dB   -24.73 dB      3:46 18-They Say It's Spring
DR13      -5.27 dB   -23.22 dB      3:26 19-Try Your Wings
DR16      -1.79 dB   -20.83 dB      3:24 20-Bang Goes the Drum (and You're In Love)
DR16      -2.90 dB   -22.89 dB      3:48 21-The Riviera
DR15      -3.42 dB   -23.81 dB      2:35 22-The Middle of Love
DR14      -6.20 dB   -23.38 dB      2:32 23-Plus T'embrasse
DR15      -4.42 dB   -22.39 dB      2:41 24-Give Him the Ooh-La-La
DR15      -5.97 dB   -23.99 dB      2:45 25-Let Me Love You
DR15      -5.46 dB   -25.53 dB      4:19 26-I Walk a Little Faster
--------------------------------------------------------------------------------

Number of tracks:  26
Official DR value: DR14

Samplerate:        44100 Hz
Channels:          2
Bits per sample:   24
Bitrate:           1021 kbps
Codec:             FLAC
================================================================================
Any questions - support@pro-jazz.com. Есть вопросы - support@pro-jazz.com
23:31
397
Нет комментариев. Ваш будет первым!