Вы используете незарегистрированную версию компонента "Вкладки"!

Поиск

2020 Guillaume Perret – A Certain Trip {French Paradox} [24-44,1]

2020 Guillaume Perret – A Certain Trip {French Paradox} [24-44,1]
Битрейт аудио:
lossless
Доп. инфо:

Формат записи/Источник записи: [TR24][OF]
Наличие водяных знаков: Нет
Год издания: 2020
Издатель (лейбл): French Paradox
Продолжительность: 00:57:59
Наличие сканов в содержимом раздачи: Только обложка
Источник (релизер): qobuz
Контейнер: FLAC (*.flac)
Тип рипа: tracks
Разрядность: 24/44,1
Формат: PCM
Количество каналов: 2.0

Лог проверки качества
foobar2000 1.4 / Dynamic Range Meter 1.1.1
log date: 2020-06-12 10:43:14

––––––––––––––––––––––––––––––––––––––––
Analyzed: Guillaume Perret / A Certain Trip
––––––––––––––––––––––––––––––––––––––––

DR Peak RMS Duration Track
––––––––––––––––––––––––––––––––––––––––
DR6 -0.37 dB -8.77 dB 8:27 01-Air Blast
DR6 -0.31 dB -8.03 dB 6:29 02-A Certain Trip
DR5 -0.29 dB -7.82 dB 8:25 03-Gulliver
DR9 -0.32 dB -10.55 dB 4:04 04-Phatty
DR7 -0.37 dB -11.97 dB 5:48 05-Into the infinite
DR6 -0.32 dB -9.03 dB 7:02 06-Sirenes
DR7 -0.35 dB -10.63 dB 11:47 07-Poseidonis
DR6 -0.34 dB -9.54 dB 5:57 08-Peace
––––––––––––––––––––––––––––––––––––––––

Number of tracks: 8
Official DR value: DR7

Samplerate: 44100 Hz
Channels: 2
Bits per sample: 24
Bitrate: 1523 kbps
Codec: FLAC
================================================================================
Any questions - support@pro-jazz.com. Есть вопросы - support@pro-jazz.com
17:38
243
Нет комментариев. Ваш будет первым!