Поиск

2013 Ron Carter & WDR Big Band - My Personal Songbook {IN+OUT} [24-44,1]

2013 Ron Carter & WDR Big Band - My Personal Songbook {IN+OUT} [24-44,1]
Стили:
Место записи:
Studio 4 Des WDR Köln
Издатель (лейбл):
Битрейт аудио:
lossless
Треклист:

01 - Eight 07:02
02 - Receipt, Please 05:59
03 - Ah, Rio 06:08
04 - Doom Mood 07:48
05 - Blues for D.P. 09:45
06 - Wait for the Beep 06:13
07 - Little Waltz 09:14
08 - For Toddlers Only 08:37
09 - Sheila's Song 10:59
10 - Cut and Paste 07:36

Состав:
  • Band – WDR Big Band Köln
  • Bass, Written-By – Ron Carter
  • Engineer [Recording] – Reinhold Nickel
  • Leader, Arranged By – Rich DeRosa
  • Producer [In+Out Records] – Frank Kleinschmidt
  • Producer [Recording] – Christian Schmitt
  • Producer [WDR] – Lucas Schmid
  • Recorded By [Assistant] – Patrick Both
Доп. инфо:

Формат записи/Источник записи: [TR24][OF]
Год издания/переиздания диска: 2013
Издатель (лейбл): IN+OUT Records
Продолжительность: 01:19:21
Наличие сканов в содержимом раздачи: Нет

Контейнер: FLAC (*.flac)
Тип рипа: tracks
Разрядность: 24/44,1
Количество каналов: 2.0

Источник (релизер): HIHGRESAUDIO

Лог проверки качества
foobar2000 1.4.3 / Dynamic Range Meter 1.1.1
log date: 2020-06-09 20:28:29

--------------------------------------------------------------------------------
Analyzed: Ron Carter & WDR Big Band / My Personal Songbook
--------------------------------------------------------------------------------

DR         Peak         RMS     Duration Track
--------------------------------------------------------------------------------
DR10      -1.06 dB   -14.34 dB      7:03 01-Eight
DR13      -1.05 dB   -16.02 dB      5:59 02-Receipt, Please
DR13      -1.05 dB   -17.03 dB      6:08 03-Ah, Rio
DR12      -6.16 dB   -23.22 dB      7:48 04-Doom Mood
DR12      -1.05 dB   -16.36 dB      9:46 05-Blues for D.P.
DR11      -1.05 dB   -15.57 dB      6:13 06-Wait for the Beep
DR11      -9.68 dB   -24.59 dB      9:15 07-Little Waltz
DR11      -1.05 dB   -14.50 dB      8:37 08-For Toddlers Only
DR12      -2.16 dB   -17.61 dB     10:59 09-Sheila's Song
DR12      -1.05 dB   -15.51 dB      7:36 10-Cut and Paste
--------------------------------------------------------------------------------

Number of tracks:  10
Official DR value: DR12

Samplerate:        44100 Hz
Channels:          2
Bits per sample:   24
Bitrate:           1624 kbps
Codec:             FLAC
================================================================================
По всем вопросам пишите личное сообщение пользователю M0p94ok.
19:51
463
Нет комментариев. Ваш будет первым!