Поиск

2016 Eric Alexander - Second Impression {HighNote HCD 7296}

2016 Eric Alexander - Second Impression {HighNote HCD 7296}
Стили:
Страна-производитель диска (релиза):
USA
Дата записи диска:
14 марта 2016
Дата издания диска:
9 сентября 2016
Издатель (лейбл):
Номер по каталогу:
HCD 7296
Носитель:
CD
Битрейт аудио:
lossless
Аудиокодек:
FLAC (*.flac)
Тип рипа:
tracks+.cue
Время звучания:
54:48
Релизёр (источник):
thegleek
Треклист:

 

01. Second Impression (Alexander) - 6:20
02. So Many Stars (Mendes-Bergman-Bergman) - 5:43
03. Blues for Mo (Alexander) - 5:18
04. Jennie's Dance (Farnsworth) - 5:54
05. Secret Love (Fain-Webster) - 7:31
06. T-Bone Steak (Smith) - 6:06
07. Frenzy (Alexander) - 6:01
08. Everything Happens to Me (Adair-Dennis) - 6:34
09. Full House (Montgomery) - 5:21

Состав:
  • Eric Alexander    Composer, Producer, Sax (Tenor)
  • Bob Cranshaw    Bass
  • Joe Farnsworth    Composer, Drums
  • Steve Futterman    Liner Notes
  • Harold Mabern    Fender Rhodes, Piano (#4,5,9)
  • Chris Sulit    Engineer

Записано в 

  • Trading 8s Recording Studio, Paramus, NJ
Лог создания рипа
Exact Audio Copy V1.1 from 23. June 2015
EAC extraction logfile from 25. October 2016, 17:56
Eric Alexander / Second Impression
Used drive : ATAPI iHAS124 B Adapter: 1 ID: 0
Read mode : Secure
Utilize accurate stream : Yes
Defeat audio cache : Yes
Make use of C2 pointers : No
Read offset correction : 6
Overread into Lead-In and Lead-Out : No
Fill up missing offset samples with silence : Yes
Delete leading and trailing silent blocks : No
Null samples used in CRC calculations : Yes
Used interface : Native Win32 interface for Win NT & 2000
Gap handling : Appended to previous track
Used output format : User Defined Encoder
Selected bitrate : 1024 kBit/s
Quality : High
Add ID3 tag : No
Command line compressor : C:\Program Files (x86)\Exact Audio Copy\Flac\flac.exe
Additional command line options : -8 -e -V -T "ARTIST=%artist%" -T "TITLE=%title%" -T "ALBUM=%albumtitle%" -T "DATE=%year%" -T "TRACKNUMBER=%tracknr%" -T "GENRE=%genre%" -T "PERFORMER=%albuminterpret%" -T "COMPOSER=%composer%" %haslyrics%--tag-from-file=LYRICS="%lyricsfile%"%haslyrics% -T "ALBUMARTIST=%albumartist%" -T "DISCNUMBER=%cdnumber%" -T "TOTALDISCS=%totalcds%" -T "TOTALTRACKS=%numtracks%" -T "COMMENT=%comment%" %source% -o %dest%
TOC of the extracted CD Track | Start | Length | Start sector | End sector --------------------------------------------------------- 1 | 0:00.00 | 6:20.01 | 0 | 28500 2 | 6:20.01 | 5:43.31 | 28501 | 54256 3 | 12:03.32 | 5:17.55 | 54257 | 78086 4 | 17:21.12 | 5:54.31 | 78087 | 104667 5 | 23:15.43 | 7:31.17 | 104668 | 138509 6 | 30:46.60 | 6:06.15 | 138510 | 165974 7 | 36:53.00 | 6:00.49 | 165975 | 193023 8 | 42:53.49 | 6:34.23 | 193024 | 222596 9 | 49:27.72 | 5:21.13 | 222597 | 246684
Track 1 Filename Q:\EAC Rips\01 - Second Impression.wav Pre-gap length 0:00:02.00 Peak level 100.0 % Extraction speed 3.6 X Track quality 100.0 % Test CRC 67B916D3 Copy CRC 67B916D3 Accurately ripped (confidence 1) [95D9F0F9] (AR v2) Copy OK
Track 2 Filename Q:\EAC Rips\02 - So Many Stars.wav Peak level 100.0 % Extraction speed 4.2 X Track quality 100.0 % Test CRC 18C0FFE7 Copy CRC 18C0FFE7 Accurately ripped (confidence 1) [6414C256] (AR v2) Copy OK
Track 3 Filename Q:\EAC Rips\03 - Blues For Mo.wav Peak level 100.0 % Extraction speed 3.9 X Track quality 99.9 % Test CRC 104EB900 Copy CRC 104EB900 Accurately ripped (confidence 1) [85082D3F] (AR v2) Copy OK
Track 4 Filename Q:\EAC Rips\04 - Jennie's Dance.wav Peak level 100.0 % Extraction speed 5.0 X Track quality 100.0 % Test CRC 56A2E8B1 Copy CRC 56A2E8B1 Accurately ripped (confidence 1) [D5267E67] (AR v2) Copy OK
Track 5 Filename Q:\EAC Rips\05 - Secret Love.wav Peak level 100.0 % Extraction speed 5.6 X Track quality 100.0 % Test CRC 64571D3D Copy CRC 64571D3D Accurately ripped (confidence 1) [D52D7048] (AR v2) Copy OK
Track 6 Filename Q:\EAC Rips\06 - T-Bone Steak.wav Peak level 100.0 % Extraction speed 5.1 X Track quality 99.9 % Test CRC 65B90DE6 Copy CRC 65B90DE6 Accurately ripped (confidence 1) [CC1011E4] (AR v2) Copy OK
Track 7 Filename Q:\EAC Rips\07 - Frenzy.wav Peak level 100.0 % Extraction speed 6.2 X Track quality 100.0 % Test CRC 9E8E5B2B Copy CRC 9E8E5B2B Accurately ripped (confidence 1) [3BF5C65E] (AR v2) Copy OK
Track 8 Filename Q:\EAC Rips\08 - Everything Happens To Me.wav Peak level 100.0 % Extraction speed 6.6 X Track quality 100.0 % Test CRC 1F03724F Copy CRC 1F03724F Accurately ripped (confidence 1) [C2153D06] (AR v2) Copy OK
Track 9 Filename Q:\EAC Rips\09 - Full House.wav Peak level 100.0 % Extraction speed 6.8 X Track quality 100.0 % Test CRC 4D1581E7 Copy CRC 4D1581E7 Accurately ripped (confidence 1) [E57C20A6] (AR v2) Copy OK
All tracks accurately ripped
No errors occurred
End of status report
---- CUETools DB Plugin V2.1.6
[CTDB TOCID: dCTuQAAP5WLy7HRXCqNwK.VLBLU-] disk not present in database
Submit result: dCTuQAAP5WLy7HRXCqNwK.VLBLU- has been uploaded
==== Log checksum F1D9F88AEC7DADC46FFF2D14F83B580CFFA982C2F91305ACC7ABFDDC53B04B25 ====
Содержание индексной карты (.CUE)
REM GENRE Jazz
REM DATE 2016
REM DISCID 850CD909
REM COMMENT "ExactAudioCopy v1.1"
PERFORMER "Eric Alexander"
TITLE "Second Impression"
FILE "01 - Second Impression.wav" WAVE TRACK 01 AUDIO TITLE "Second Impression" PERFORMER "Eric Alexander" ISRC USHNR1629601 INDEX 01 00:00:00
FILE "02 - So Many Stars.wav" WAVE TRACK 02 AUDIO TITLE "So Many Stars" PERFORMER "Eric Alexander" ISRC USHNR1629602 INDEX 01 00:00:00
FILE "03 - Blues for Mo.wav" WAVE TRACK 03 AUDIO TITLE "Blues for Mo" PERFORMER "Eric Alexander" ISRC USHNR1629603 INDEX 01 00:00:00
FILE "04 - Jennie's Dance.wav" WAVE TRACK 04 AUDIO TITLE "Jennie's Dance" PERFORMER "Eric Alexander" ISRC USHNR1629604 INDEX 01 00:00:00
FILE "05 - Secret Love.wav" WAVE TRACK 05 AUDIO TITLE "Secret Love" PERFORMER "Eric Alexander" ISRC USHNR1629605 INDEX 01 00:00:00
FILE "06 - T-Bone Steak.wav" WAVE TRACK 06 AUDIO TITLE "T-Bone Steak" PERFORMER "Eric Alexander" ISRC USHNR1629606 INDEX 01 00:00:00
FILE "07 - Frenzy.wav" WAVE TRACK 07 AUDIO TITLE "Frenzy" PERFORMER "Eric Alexander" ISRC USHNR1629607 INDEX 01 00:00:00
FILE "08 - Everything Happens to Me.wav" WAVE TRACK 08 AUDIO TITLE "Everything Happens to Me" PERFORMER "Eric Alexander" ISRC USHNR1629608 INDEX 01 00:00:00
FILE "09 - Full House.wav" WAVE TRACK 09 AUDIO TITLE "Full House" PERFORMER "Eric Alexander" ISRC USHNR1629609 INDEX 01 00:00:00
Приватный:
Нет (DHT включён)
Размер:
366.72 Мб (384,537,524 байт) » файлов: 16
Участники:
0 раздают, 1 качают (1 участников всего)
Внешние участники:
5 раздают, 1 качают (6 участников всего) [ Обновить ]
Скорость:
1.21 Мб/c 0/c
11:58
86
RSS
Нет комментариев. Ваш будет первым!