Поиск

2017 Special EFX - Deep As The Night {Trippin N Rhythm TNR 91}

2017 Special EFX - Deep As The Night {Trippin N Rhythm TNR 91}
Страна-производитель диска (релиза):
USA
Дата издания диска:
14 апреля 2017
Издатель (лейбл):
Номер по каталогу:
TNR 91
Носитель:
CD
Битрейт аудио:
lossless
Аудиокодек:
FLAC (*.flac)
Тип рипа:
image+.cue
Время звучания:
57:04
Наличие сканов:
  • да
Релизёр (источник):
crossovernickk

Треклист:

 

01. Deep as the Night
02. Another Day, Another Smile
03. Lavish 5
04. Dance on the Delta
05. Across the Seven Seas
06. Night Shift
07. Garden of Eden
08. You Were the One
09. Never Ending Love
10. Beautiful Gold
11. Mother of Pearl
12. Endless Us

Состав:
  • Jerry Brooks    Bass
  • Mino Cinelu    Percussion
  • Nicholas Cole    Beats, Composer, Engineer, Keyboards
  • Lionel Cordew    Drums
  • Evangeline Daugherty    Voices
  • David Mann    Saxophone
  • Chieli Minucci    Beats, Body Percussion, Composer, Engineer, Guitar, Guitar (Acoustic), Guitar (Bass), Guitar (Electric), Handclapping, Keyboards, Pre-Production, Slide Guitar, Voices
  • Jay Rowe    Piano (Grand)
  • Antoine Silverman    Violin
  • Lao Tizer    Piano (Grand)
  • Elan Trotman    Saxophone

Записано в:

  • Baci Studios, NYC
  • Charlestown Road Studios, Hampton, NJ
  • Double D Studios, NYC
  • Horizon Studios, Warren, NJ
  • The Sound Bunker, NC
Exact Audio Copy V1.3 from 2. September 2016
EAC extraction logfile from 23. September 2017, 11:11
Special EFX / Deep as the Night
Used drive : TSSTcorpCDDVDW SH-S222A Adapter: 1 ID: 0
Read mode : Secure
Utilize accurate stream : Yes
Defeat audio cache : Yes
Make use of C2 pointers : No
Read offset correction : 6
Overread into Lead-In and Lead-Out : No
Fill up missing offset samples with silence : Yes
Delete leading and trailing silent blocks : No
Null samples used in CRC calculations : Yes
Used interface : Native Win32 interface for Win NT & 2000
Used output format : User Defined Encoder
Selected bitrate : 896 kBit/s
Quality : High
Add ID3 tag : No
Command line compressor : C:\Program Files\Exact Audio Copy\FLAC\FLAC.EXE
Additional command line options : -6 -V -T "ARTIST=%artist%" -T "TITLE=%title%" -T "ALBUM=%albumtitle%" -T "DATE=%year%" -T "TRACKNUMBER=%tracknr%" -T "GENRE=%genre%" -T "COMMENT=%comment%" -T "BAND=%albuminterpret%" -T "ALBUMARTIST=%albuminterpret%" -T "COMPOSER=%composer%" %haslyrics%--tag-from-file=LYRICS="%lyricsfile%"%haslyrics% -T "DISCNUMBER=%cdnumber%" -T "TOTALDISCS=%totalcds%" -T "TOTALTRACKS=%numtracks%" %hascover%--picture="%coverfile%"%hascover% %source% -o %dest%
TOC of the extracted CD Track | Start | Length | Start sector | End sector --------------------------------------------------------- 1 | 0:00.00 | 5:24.45 | 0 | 24344 2 | 5:24.45 | 4:37.32 | 24345 | 45151 3 | 10:02.02 | 4:07.30 | 45152 | 63706 4 | 14:09.32 | 5:13.29 | 63707 | 87210 5 | 19:22.61 | 4:17.61 | 87211 | 106546 6 | 23:40.47 | 4:10.35 | 106547 | 125331 7 | 27:51.07 | 5:00.73 | 125332 | 147904 8 | 32:52.05 | 3:54.20 | 147905 | 165474 9 | 36:46.25 | 4:05.37 | 165475 | 183886 10 | 40:51.62 | 5:49.29 | 183887 | 210090 11 | 46:41.16 | 5:02.26 | 210091 | 232766 12 | 51:43.42 | 5:20.25 | 232767 | 256791
Range status and errors
Selected range Filename D:\Music\Мои раздачи\Special EFX - Deep as the Night (2017).wav Peak level 92.2 % Extraction speed 7.4 X Range quality 99.9 % Test CRC 7337C9AA Copy CRC 7337C9AA Copy OK
No errors occurred
AccurateRip summary
Track 1 cannot be verified as accurate (confidence 2) [8877805B], AccurateRip returned [538426AB] (AR v2)
Track 2 cannot be verified as accurate (confidence 2) [E26FE902], AccurateRip returned [6EDB9B68] (AR v2)
Track 3 cannot be verified as accurate (confidence 2) [2F5FEC20], AccurateRip returned [FEEBBD87] (AR v2)
Track 4 cannot be verified as accurate (confidence 2) [E8B8DA9E], AccurateRip returned [233FDBE5] (AR v2)
Track 5 cannot be verified as accurate (confidence 2) [8FE1BAC2], AccurateRip returned [42F9FB2C] (AR v2)
Track 6 cannot be verified as accurate (confidence 2) [A4B8DD10], AccurateRip returned [EFE7486F] (AR v2)
Track 7 cannot be verified as accurate (confidence 2) [84529358], AccurateRip returned [34759E32] (AR v2)
Track 8 cannot be verified as accurate (confidence 2) [261E5ACF], AccurateRip returned [D6245947] (AR v2)
Track 9 cannot be verified as accurate (confidence 2) [D6C8F5E0], AccurateRip returned [56D777E3] (AR v2)
Track 10 cannot be verified as accurate (confidence 2) [950434BE], AccurateRip returned [A05D5FAB] (AR v2)
Track 11 cannot be verified as accurate (confidence 2) [26DCC6D2], AccurateRip returned [4D5ED485] (AR v2)
Track 12 cannot be verified as accurate (confidence 2) [40CE341D], AccurateRip returned [AB16EC65] (AR v2)
No tracks could be verified as accurate
You may have a different pressing from the one(s) in the database
End of status report
---- CUETools DB Plugin V2.1.6
[CTDB TOCID: tO27kUAOoTyoqHwWZ6F3OZYfiO4-] found
Submit result: tO27kUAOoTyoqHwWZ6F3OZYfiO4- has been confirmed
Track | CTDB Status 1 | (1/6) Accurately ripped, or (5/6) differs in 22 samples @01:25:51-01:25:52 2 | (6/6) Accurately ripped 3 | (6/6) Accurately ripped 4 | (6/6) Accurately ripped 5 | (6/6) Accurately ripped 6 | (6/6) Accurately ripped 7 | (6/6) Accurately ripped 8 | (6/6) Accurately ripped 9 | (6/6) Accurately ripped 10 | (6/6) Accurately ripped 11 | (6/6) Accurately ripped 12 | (6/6) Accurately ripped
If you are sure that your rip contains errors, you can use CUETools to repair it.
==== Log checksum E0AD4CD965165D1BA81F62006562991F3E10522F34C5A7D492F6A48E9471457F ====
-----------------------
DON'T MODIFY THIS FILE
-----------------------
PERFORMER: auCDtect Task Manager, ver. 1.6.0 RC1 build 1.6.0.1
Copyright (c) 2008-2010 y-soft. All rights reserved
http://y-soft.org
ANALYZER: auCDtect: CD records authenticity detector, version 0.8.2
Copyright (c) 2004 Oleg Berngardt. All rights reserved.
Copyright (c) 2004 Alexander Djourik. All rights reserved.
FILE: Special EFX - Deep as the Night (2017).flac Size: 380785001 Hash: 2F09B0254DE0400E29B8C99151C13648 Accuracy: -m0 Conclusion: CDDA 100% Signature: BCE42C294D17C3A91297CDCC45A3881B877B93E5
Приватный:
Нет (DHT включён)
Размер:
366.35 Мб (384,141,467 байт) » файлов: 11
Участники:
0 раздают, 0 качают (0 участников всего)
Внешние участники:
34 раздают, 11 качают (45 участников всего) [ Обновить ]
Скорость:
Торрент не зарегистрирован на трекере
14:09
58
RSS
Нет комментариев. Ваш будет первым!