Поиск

2010 Howard Alden - I Remember Django {Arbors ARCD 19401}

2010 Howard Alden - I Remember Django {Arbors ARCD 19401}
Страна-производитель диска (релиза):
USA
Дата записи диска:
24-25 ноября 2010
Дата издания диска:
8 февраля 2011
Издатель (лейбл):
Номер по каталогу:
ARCD 19401
Носитель:
CD
Битрейт аудио:
lossless
Аудиокодек:
FLAC (*.flac)
Тип рипа:
tracks+.cue
Время звучания:
59:54
Наличие сканов:
  • да
Релизёр (источник):
Maldoror777

Треклист:

01. Who Cares? (3:32)
02. Up Jumped You With Love (5:14)
03. I Remember Django (5:08)
04. Jubilee Stomp (4:30)
05. Insensiblement (5:25)
06. Between The Devil And The Deep Blue Sea (4:14)
07. Nuages (6:18)
08. Bernardo (3:53)
09. For Django (5:03)
10. Nagasaki (3:19)
11. I'm Confessin' That I Love You (3:28)
12. I'm Forever Blowing Bubbles / I'll See You In My Dreams (4:36)
13. Tears (5:15)

Состав:
  • Howard Alden    Guitar, Producer
  • Jon Burr    Bass
  • Anat Cohen    Clarinet
  • Jim Czak    Engineer, Mastering, Mixing
  • Phyllis Kessel    Liner Notes
  • Matt Munisteri    Guitar

Записано в Nola Studios, NYC, NY, November 24 & 25, 2010.

Лог создания рипа
Exact Audio Copy V1.0 beta 3 from 29. August 2011
EAC extraction logfile from 10. March 2015, 11:27
Howard Alden / I Remember Django
Used drive : ATAPI iHAS120 6 Adapter: 5 ID: 0
Read mode : Secure
Utilize accurate stream : Yes
Defeat audio cache : Yes
Make use of C2 pointers : No
Read offset correction : 6
Overread into Lead-In and Lead-Out : No
Fill up missing offset samples with silence : Yes
Delete leading and trailing silent blocks : No
Null samples used in CRC calculations : Yes
Used interface : Native Win32 interface for Win NT & 2000
Gap handling : Appended to previous track
Used output format : User Defined Encoder
Selected bitrate : 1024 kBit/s
Quality : High
Add ID3 tag : No
Command line compressor : C:\Program Files (x86)\Exact Audio Copy\Flac\flac.exe
Additional command line options : -8 -V -T "ARTIST=%artist%" -T "TITLE=%title%" -T "ALBUM=%albumtitle%" -T "DATE=%year%" -T "TRACKNUMBER=%tracknr%" -T "GENRE=%genre%" -T "PERFORMER=%albuminterpret%" -T "COMPOSER=%composer%" %haslyrics%--tag-from-file=LYRICS="%lyricsfile%"%haslyrics% -T "ALBUMARTIST=%albumartist%" -T "DISCNUMBER=%cdnumber%" -T "TOTALDISCS=%totalcds%" -T "TOTALTRACKS=%numtracks%" -T "COMMENT=%comment%" %source% -o %dest%
TOC of the extracted CD Track | Start | Length | Start sector | End sector --------------------------------------------------------- 1 | 0:00.00 | 3:32.17 | 0 | 15916 2 | 3:32.17 | 5:13.66 | 15917 | 39457 3 | 8:46.08 | 5:07.50 | 39458 | 62532 4 | 13:53.58 | 4:29.51 | 62533 | 82758 5 | 18:23.34 | 5:24.56 | 82759 | 107114 6 | 23:48.15 | 4:13.50 | 107115 | 126139 7 | 28:01.65 | 6:18.23 | 126140 | 154512 8 | 34:20.13 | 3:52.51 | 154513 | 171963 9 | 38:12.64 | 5:02.48 | 171964 | 194661 10 | 43:15.37 | 3:19.19 | 194662 | 209605 11 | 46:34.56 | 3:27.58 | 209606 | 225188 12 | 50:02.39 | 4:36.09 | 225189 | 245897 13 | 54:38.48 | 5:14.70 | 245898 | 269517
Track 1 Filename Q:\RIP\01 - Who Cares.wav Pre-gap length 0:00:02.00 Peak level 96.8 % Extraction speed 1.9 X Track quality 100.0 % Test CRC ED5BF900 Copy CRC ED5BF900 Accurately ripped (confidence 3) [9D4529A9] (AR v2) Copy OK
Track 2 Filename Q:\RIP\02 - Up Jumped You With Love.wav Peak level 96.9 % Extraction speed 2.2 X Track quality 100.0 % Test CRC 22A2B55C Copy CRC 22A2B55C Accurately ripped (confidence 3) [E94A3157] (AR v2) Copy OK
Track 3 Filename Q:\RIP\03 - I Remember Django.wav Peak level 88.0 % Extraction speed 2.2 X Track quality 100.0 % Test CRC DE28A748 Copy CRC DE28A748 Accurately ripped (confidence 3) [2862D15F] (AR v2) Copy OK
Track 4 Filename Q:\RIP\04 - Jubilee Stomp.wav Peak level 96.8 % Extraction speed 2.7 X Track quality 100.0 % Test CRC D33B8D93 Copy CRC D33B8D93 Accurately ripped (confidence 3) [97596DE6] (AR v2) Copy OK
Track 5 Filename Q:\RIP\05 - Insensiblement.wav Peak level 96.8 % Extraction speed 2.7 X Track quality 100.0 % Test CRC D3E425F1 Copy CRC D3E425F1 Accurately ripped (confidence 3) [ACC29F08] (AR v2) Copy OK
Track 6 Filename Q:\RIP\06 - Between The Devil And The Deep Blue Sea.wav Peak level 96.8 % Extraction speed 2.7 X Track quality 100.0 % Test CRC DCEA4A6D Copy CRC DCEA4A6D Accurately ripped (confidence 3) [21865700] (AR v2) Copy OK
Track 7 Filename Q:\RIP\07 - Nuages.wav Peak level 96.8 % Extraction speed 3.3 X Track quality 100.0 % Test CRC C93B27FE Copy CRC C93B27FE Accurately ripped (confidence 3) [0DE24B2E] (AR v2) Copy OK
Track 8 Filename Q:\RIP\08 - Bernardo.wav Peak level 96.8 % Extraction speed 3.4 X Track quality 100.0 % Test CRC DBBF4D93 Copy CRC DBBF4D93 Accurately ripped (confidence 3) [76B05C66] (AR v2) Copy OK
Track 9 Filename Q:\RIP\09 - For Django.wav Peak level 96.8 % Extraction speed 3.2 X Track quality 100.0 % Test CRC 4D308F59 Copy CRC 4D308F59 Accurately ripped (confidence 3) [4F42958C] (AR v2) Copy OK
Track 10 Filename Q:\RIP\10 - Nagasaki.wav Peak level 96.8 % Extraction speed 3.2 X Track quality 100.0 % Test CRC BECE7D9D Copy CRC BECE7D9D Accurately ripped (confidence 3) [42A557F9] (AR v2) Copy OK
Track 11 Filename Q:\RIP\11 - I'm Confessin' That I Love You.wav Peak level 96.8 % Extraction speed 3.6 X Track quality 100.0 % Test CRC 1D916A6F Copy CRC 1D916A6F Accurately ripped (confidence 3) [314DD199] (AR v2) Copy OK
Track 12 Filename Q:\RIP\12 - I'm Forever Blowing Bubbles I'll See You In My Dreams.wav Peak level 96.8 % Extraction speed 3.7 X Track quality 100.0 % Test CRC 5AA865E3 Copy CRC 5AA865E3 Accurately ripped (confidence 3) [6A46D31D] (AR v2) Copy OK
Track 13 Filename Q:\RIP\13 - Tears.wav Peak level 96.8 % Extraction speed 3.1 X Track quality 100.0 % Test CRC 00428D2B Copy CRC 00428D2B Accurately ripped (confidence 3) [30D74A80] (AR v2) Copy OK
All tracks accurately ripped
No errors occurred
End of status report
---- CUETools DB Plugin V2.1.4
[CTDB TOCID: 4v4DzgiPAZ88V87K.u_odZimJjc-] disk not present in database
Submit result: 4v4DzgiPAZ88V87K.u_odZimJjc- has been uploaded
==== Log checksum 2C77A271EFF420D0A5E16B99AD21C114B27B2BA16C548F09236D3D6704AF36ED ====
Содержание индексной карты (.CUE)
REM GENRE Jazz
REM DATE 2010
REM DISCID A70E090D
REM COMMENT "ExactAudioCopy v1.0b3"
PERFORMER "Howard Alden"
TITLE "I Remember Django"
FILE "01. Who Cares.flac" WAVE TRACK 01 AUDIO TITLE "Who Cares?" PERFORMER "Howard Alden" FLAGS DCP INDEX 01 00:00:00
FILE "02. Up Jumped You With Love.flac" WAVE TRACK 02 AUDIO TITLE "Up Jumped You With Love" PERFORMER "Howard Alden" FLAGS DCP INDEX 01 00:00:00
FILE "03. I Remember Django.flac" WAVE TRACK 03 AUDIO TITLE "I Remember Django" PERFORMER "Howard Alden" FLAGS DCP INDEX 01 00:00:00
FILE "04. Jubilee Stomp.flac" WAVE TRACK 04 AUDIO TITLE "Jubilee Stomp" PERFORMER "Howard Alden" FLAGS DCP INDEX 01 00:00:00
FILE "05. Insensiblement.flac" WAVE TRACK 05 AUDIO TITLE "Insensiblement" PERFORMER "Howard Alden" FLAGS DCP INDEX 01 00:00:00
FILE "06. Between The Devil And The Deep Blue Sea.flac" WAVE TRACK 06 AUDIO TITLE "Between The Devil And The Deep Blue Sea" PERFORMER "Howard Alden" FLAGS DCP INDEX 01 00:00:00
FILE "07. Nuages.flac" WAVE TRACK 07 AUDIO TITLE "Nuages" PERFORMER "Howard Alden" FLAGS DCP INDEX 01 00:00:00
FILE "08. Bernardo.flac" WAVE TRACK 08 AUDIO TITLE "Bernardo" PERFORMER "Howard Alden" FLAGS DCP INDEX 01 00:00:00
FILE "09. For Django.flac" WAVE TRACK 09 AUDIO TITLE "For Django" PERFORMER "Howard Alden" FLAGS DCP INDEX 01 00:00:00
FILE "10. Nagasaki.flac" WAVE TRACK 10 AUDIO TITLE "Nagasaki" PERFORMER "Howard Alden" FLAGS DCP INDEX 01 00:00:00
FILE "11. I'm Confessin' That I Love You.flac" WAVE TRACK 11 AUDIO TITLE "I'm Confessin' That I Love You" PERFORMER "Howard Alden" FLAGS DCP INDEX 01 00:00:00
FILE "12. I'm Forever Blowing Bubbles - I'll See You In My Dreams.flac" WAVE TRACK 12 AUDIO TITLE "I'm Forever Blowing Bubbles / I'll See You In My Dreams" PERFORMER "Howard Alden" FLAGS DCP INDEX 01 00:00:00
FILE "13. Tears.flac" WAVE TRACK 13 AUDIO TITLE "Tears" PERFORMER "Howard Alden" FLAGS DCP INDEX 01 00:00:00
Приватный:
Нет (DHT включён)
Размер:
307.70 Мб (322,646,417 байт) » файлов: 30
Участники:
0 раздают, 0 качают (0 участников всего)
Внешние участники:
2 раздают, 1 качают (3 участников всего) [ Обновить ]
10:42
77
RSS
Нет комментариев. Ваш будет первым!