Поиск

1981 William Bolcom & William Albright - Ragtime: Scott Joplin & James P. Johnson {01612-67135-2}

1981 William Bolcom & William Albright - Ragtime: Scott Joplin & James P. Johnson {01612-67135-2}
Стили:
Страна-производитель диска (релиза):
USA
Дата записи диска:
июнь 1975
Дата издания диска:
1981
Издатель (лейбл):
Номер по каталогу:
01612-67135-2
Носитель:
CD
Битрейт аудио:
lossless
Аудиокодек:
FLAC (*.flac)
Тип рипа:
tracks+.cue
Время звучания:
37:05
Наличие сканов:
  • да
Релизёр (источник):
duppyB

Треклист:

Joplin: Collaborative Rags
1.Swipesy Cake Walk
2 Lily Queen
3.Sunflower Slow Drag
4.Something Doing
5.Felicity Rag
James P. Johnson: Stride Pieces
6.Mule-Walk Stomp
7.Eccentricity-Suncopated Waltz
8.Modernistic (You've Got to Be)
9.Snowy Morning Blues
10.Carolina Shout

Состав:

Originally produced and edited, and digitally remastered in 1993 by Dr. Frederick J. Bashour,
Dufay Digital Music, Leverett, Massachusetts. Recorded June 1975 at Hill Auditorium, University of Michigan, Ann Arbor, Michigan.

Лог создания рипа
Exact Audio Copy V1.0 beta 3 from 29. August 2011
EAC extraction logfile from 25. April 2012, 18:19
William Bolcom & William Albright / Ragtime: Scott Joplin & James P. Johnson
Used drive : ASUS DRW-24B3ST Adapter: 2 ID: 1
Read mode : Secure
Utilize accurate stream : Yes
Defeat audio cache : Yes
Make use of C2 pointers : No
Read offset correction : 6
Overread into Lead-In and Lead-Out : No
Fill up missing offset samples with silence : Yes
Delete leading and trailing silent blocks : No
Null samples used in CRC calculations : Yes
Used interface : Native Win32 interface for Win NT & 2000
Gap handling : Appended to previous track
Used output format : User Defined Encoder
Selected bitrate : 128 kBit/s
Quality : High
Add ID3 tag : No
Command line compressor : C:\Program Files\Exact Audio Copy\Flac\flac.exe
Additional command line options : -V -8 -T "Date=%year%" -T "Genre=%genre%" %source%
TOC of the extracted CD Track | Start | Length | Start sector | End sector --------------------------------------------------------- 1 | 0:00.37 | 3:25.08 | 37 | 15419 2 | 3:25.45 | 4:37.40 | 15420 | 36234 3 | 8:03.10 | 3:51.60 | 36235 | 53619 4 | 11:54.70 | 4:02.50 | 53620 | 71819 5 | 15:57.45 | 3:42.25 | 71820 | 88494 6 | 19:39.70 | 2:29.47 | 88495 | 99716 7 | 22:09.42 | 5:13.40 | 99717 | 123231 8 | 27:23.07 | 3:07.50 | 123232 | 137306 9 | 30:30.57 | 3:06.43 | 137307 | 151299 10 | 33:37.25 | 3:26.20 | 151300 | 166769
Track 1 Filename E:\William Bolcom & William Albright - Ragtime - Scott Joplin & James P. Johnson (1973)\01. William Bolcom - Swipesy Cake Walk - Joplin 1900 .wav Pre-gap length 0:00:02.37 Peak level 91.2 % Extraction speed 1.8 X Track quality 100.0 % Test CRC 6DD612B7 Copy CRC 6DD612B7 Cannot be verified as accurate (confidence 4) [F42F2E2B], AccurateRip returned [32E08F80] (AR v2) Copy OK
Track 2 Filename E:\William Bolcom & William Albright - Ragtime - Scott Joplin & James P. Johnson (1973)\02. William Bolcom - Lily Queen - Joplin 1907 .wav Pre-gap length 0:00:04.25 Peak level 84.3 % Extraction speed 1.5 X Track quality 99.9 % Test CRC C45EE33C Copy CRC C45EE33C Cannot be verified as accurate (confidence 4) [124D06A3], AccurateRip returned [2E6E0265] (AR v2) Copy OK
Track 3 Filename E:\William Bolcom & William Albright - Ragtime - Scott Joplin & James P. Johnson (1973)\03. William Bolcom - Sunflower Slow Drag - Joplin 1901 .wav Pre-gap length 0:00:04.65 Peak level 82.3 % Extraction speed 2.2 X Track quality 100.0 % Test CRC 645146AD Copy CRC 645146AD Cannot be verified as accurate (confidence 4) [C43D4654], AccurateRip returned [407A9BAC] (AR v2) Copy OK
Track 4 Filename E:\William Bolcom & William Albright - Ragtime - Scott Joplin & James P. Johnson (1973)\04. William Bolcom - Something Doing - Joplin 1903 .wav Pre-gap length 0:00:04.50 Peak level 84.3 % Extraction speed 1.7 X Track quality 99.9 % Test CRC FF993BA0 Copy CRC FF993BA0 Cannot be verified as accurate (confidence 4) [19B8D3CC], AccurateRip returned [9A01BA0B] (AR v2) Copy OK
Track 5 Filename E:\William Bolcom & William Albright - Ragtime - Scott Joplin & James P. Johnson (1973)\05. William Bolcom - Felicity Rag - Joplin 1911 .wav Pre-gap length 0:00:04.55 Peak level 72.6 % Extraction speed 2.5 X Track quality 100.0 % Test CRC 37CB1103 Copy CRC 37CB1103 Cannot be verified as accurate (confidence 4) [9CF6ED09], AccurateRip returned [2AEF0B0C] (AR v2) Copy OK
Track 6 Filename E:\William Bolcom & William Albright - Ragtime - Scott Joplin & James P. Johnson (1973)\06. William Albright - Mule-Walk Stomp - Stride - Johnson 1920 .wav Pre-gap length 0:00:07.25 Peak level 89.3 % Extraction speed 2.4 X Track quality 100.0 % Test CRC 8E51C079 Copy CRC 8E51C079 Cannot be verified as accurate (confidence 4) [850C8000], AccurateRip returned [BB23A334] (AR v2) Copy OK
Track 7 Filename E:\William Bolcom & William Albright - Ragtime - Scott Joplin & James P. Johnson (1973)\07. William Albright - Eccentricity-Syncopated Waltz - Stride - Johnson 1917 .wav Pre-gap length 0:00:04.47 Peak level 94.1 % Extraction speed 2.9 X Track quality 100.0 % Test CRC D552BA2A Copy CRC D552BA2A Cannot be verified as accurate (confidence 4) [51866F1C], AccurateRip returned [B7C8160F] (AR v2) Copy OK
Track 8 Filename E:\William Bolcom & William Albright - Ragtime - Scott Joplin & James P. Johnson (1973)\08. William Albright - Modernistic - Stride - Johnson 1929 .wav Pre-gap length 0:00:04.25 Peak level 86.3 % Extraction speed 2.8 X Track quality 100.0 % Test CRC 8700A375 Copy CRC 8700A375 Cannot be verified as accurate (confidence 4) [0A41A7E8], AccurateRip returned [3DF11E9D] (AR v2) Copy OK
Track 9 Filename E:\William Bolcom & William Albright - Ragtime - Scott Joplin & James P. Johnson (1973)\09. William Albright - Snowy Morning Blues - Stride - Johnson 1925 .wav Pre-gap length 0:00:04.12 Peak level 68.0 % Extraction speed 1.9 X Track quality 99.9 % Test CRC 637C2132 Copy CRC 637C2132 Cannot be verified as accurate (confidence 4) [ED1F0D32], AccurateRip returned [736DE554] (AR v2) Copy OK
Track 10 Filename E:\William Bolcom & William Albright - Ragtime - Scott Joplin & James P. Johnson (1973)\10. William Albright - Carolina Shout - Stride - Johnson 1914 .wav Pre-gap length 0:00:03.67 Peak level 97.9 % Extraction speed 3.0 X Track quality 100.0 % Test CRC 31ABBAE5 Copy CRC 31ABBAE5 Cannot be verified as accurate (confidence 4) [E701B3D5], AccurateRip returned [37A247A4] (AR v2) Copy OK
No tracks could be verified as accurate
You may have a different pressing from the one(s) in the database
No errors occurred
End of status report
==== Log checksum 75BE386DD9397840B58C9E69DB4AC26FAB6128314AE80AE297F716AD3CADA7CB ====
Содержание индексной карты (.CUE)
REM GENRE Jazz
REM DATE 1991
REM DISCID 7E08AF0A
REM COMMENT "ExactAudioCopy v1.0b3"
CATALOG 0000000000000
PERFORMER "William Bolcom & William Albright"
TITLE "Ragtime: Scott Joplin & James P. Johnson"
FILE "01. William Bolcom - Swipesy Cake Walk - Joplin 1900 .wav" WAVE TRACK 01 AUDIO TITLE "Swipesy Cake Walk - Joplin 1900" PERFORMER " William Bolcom" PREGAP 00:00:37 INDEX 01 00:00:00 TRACK 02 AUDIO TITLE "Lily Queen - Joplin 1907" PERFORMER " William Bolcom" INDEX 00 03:20:58
FILE "02. William Bolcom - Lily Queen - Joplin 1907 .wav" WAVE INDEX 01 00:00:00 TRACK 03 AUDIO TITLE "Sunflower Slow Drag - Joplin 1901" PERFORMER " William Bolcom" INDEX 00 04:32:50
FILE "03. William Bolcom - Sunflower Slow Drag - Joplin 1901 .wav" WAVE INDEX 01 00:00:00 TRACK 04 AUDIO TITLE "Something Doing - Joplin 1903" PERFORMER " William Bolcom" INDEX 00 03:47:10
FILE "04. William Bolcom - Something Doing - Joplin 1903 .wav" WAVE INDEX 01 00:00:00 TRACK 05 AUDIO TITLE "Felicity Rag - Joplin 1911" PERFORMER " William Bolcom" INDEX 00 03:57:70
FILE "05. William Bolcom - Felicity Rag - Joplin 1911 .wav" WAVE INDEX 01 00:00:00 TRACK 06 AUDIO TITLE "Mule-Walk Stomp - Stride - Johnson 1920" PERFORMER " William Albright" INDEX 00 03:35:00
FILE "06. William Albright - Mule-Walk Stomp - Stride - Johnson 1920 .wav" WAVE INDEX 01 00:00:00 TRACK 07 AUDIO TITLE "Eccentricity-Syncopated Waltz - Stride - Johnson 1917" PERFORMER " William Albright" INDEX 00 02:25:00
FILE "07. William Albright - Eccentricity-Syncopated Waltz - Stride - Johnson 1917 .wav" WAVE INDEX 01 00:00:00 TRACK 08 AUDIO TITLE "Modernistic - Stride - Johnson 1929" PERFORMER " William Albright" INDEX 00 05:09:15
FILE "08. William Albright - Modernistic - Stride - Johnson 1929 .wav" WAVE INDEX 01 00:00:00 TRACK 09 AUDIO TITLE "Snowy Morning Blues - Stride - Johnson 1925" PERFORMER " William Albright" INDEX 00 03:03:38
FILE "09. William Albright - Snowy Morning Blues - Stride - Johnson 1925 .wav" WAVE INDEX 01 00:00:00 TRACK 10 AUDIO TITLE "Carolina Shout - Stride - Johnson 1914" PERFORMER " William Albright" INDEX 00 03:02:51
FILE "10. William Albright - Carolina Shout - Stride - Johnson 1914 .wav" WAVE INDEX 01 00:00:00
Приватный:
Нет (DHT включён)
Размер:
149.68 Мб (156,945,740 байт) » файлов: 20
Участники:
0 раздают, 0 качают (0 участников всего)
Внешние участники:
5 раздают, 1 качают (6 участников всего) [ Обновить ]
23:59
84
RSS
Нет комментариев. Ваш будет первым!