Поиск

2015 Angelique Kidjo - Sings (2018) {429} [24-88,2]

2015 Angelique Kidjo - Sings (2018) {429} [24-88,2]
Издатель (лейбл):
Треклист:

Формат записи/Источник записи: [TR24][OF]
Наличие водяных знаков: Нет
Год издания/переиздания диска: 2015/2018
Продолжительность: 41:51
Наличие сканов в содержимом раздачи: Буклет PDF
Контейнер: FLAC (*.flac)
Тип рипа: tracks
Разрядность: 24/88,2
Формат: PCM
Количество каналов: 2.0
Источник: i-classical.com

Треклист:
01. Malaika (3:33)
02. Ominira (3:52)
03. Kelele (3:37)
04. Fifa (4:33)
05. Otishe (4:03)
06. Bahia (3:32)
07. Petite Fleur (2:28)
08. Samba Pa Ti (3:49)
09. Nanae (4:18)
10. Naima (3:50)
11. Loloye (4:15)

 
Лог проверки качества
foobar2000 1.3.9 / Dynamic Range Meter 1.1.1
log date: 2018-07-02 23:01:46
--------------------------------------------------------------------------------
Analyzed: Angélique Kidjo / Sings
--------------------------------------------------------------------------------
DR         Peak         RMS     Duration Track
--------------------------------------------------------------------------------
DR10      -0.21 dB   -14.26 dB      3:33 01-Malaika
DR10      -0.21 dB   -12.73 dB      3:52 02-Ominira
DR8       -0.22 dB   -10.47 dB      3:37 03-Kelele
DR9       -0.21 dB   -13.64 dB      4:33 04-Fifa
DR10      -0.21 dB   -12.32 dB      4:03 05-Otishe
DR10      -0.21 dB   -12.92 dB      3:32 06-Bahia
DR10      -0.21 dB   -15.06 dB      2:28 07-Petite Fleur
DR9       -0.21 dB   -12.68 dB      3:49 08-Samba Pa Ti
DR8       -0.21 dB   -10.23 dB      4:18 09-Nanae
DR10      -0.21 dB   -14.40 dB      3:50 10-Naima
DR9       -0.21 dB   -11.82 dB      4:15 11-Loloye
--------------------------------------------------------------------------------
Number of tracks:  11
Official DR value: DR9
Samplerate:        88200 Hz
Channels:          2
Bits per sample:   24
Bitrate:           2709 kbps
Codec:             FLAC
================================================================================

 

Приватный:
Нет (DHT включён)
Размер:
808.88 Мб (848,177,375 байт) » файлов: 16
Участники:
0 раздают, 0 качают (0 участников всего)
Внешние участники:
3 раздают, 1 качают (4 участников всего) [ Обновить ]
Никого нет на раздаче - пишите личное сообщение M0p94ok
No seeders - write personal message to M0p94ok
16:25
174
Нет комментариев. Ваш будет первым!