Поиск

2015 Nellie McKay - My Weekly Reader (2018) {429} [24-96]

2015 Nellie McKay - My Weekly Reader (2018) {429} [24-96]
Стили:
Издатель (лейбл):
Треклист:

Формат записи/Источник записи: [TR24][OF]
Наличие водяных знаков: Нет
Год издания/переиздания диска: 2015/2018
Продолжительность: 48:06
Наличие сканов в содержимом раздачи: Только обложка альбома
Контейнер: FLAC (*.flac)
Тип рипа: tracks
Разрядность: 24/96
Формат: PCM
Количество каналов: 2.0
Источник: i-classical.com

Треклист:
01. Sunny Afternoon (3:09)
02. Quicksilver Girl (3:09)
03. Poor People / Justice (3:37)
04. Murder In My Heart For The Judge (5:31)
05. Bold Marauder (3:49)
06. Itchycoo Park (3:28)
07. Mrs. Brown You've Got A Lovely Daughter (2:13)
08. Not So Sweet Martha Lorraine (5:17)
09. If I Fell (2:40)
10. Red Rubber Ball (3:38)
11. Don't Let The Sun Catch You Crying (2:27)
12. Hungry Freaks, Daddy (4:35)
13. Wooden Ships (4:34)

 
Лог проверки качества
 
foobar2000 1.3.9 / Dynamic Range Meter 1.1.1
log date: 2018-07-02 22:52:33
--------------------------------------------------------------------------------
Analyzed: Nellie McKay / My Weekly Reader
--------------------------------------------------------------------------------
DR         Peak         RMS     Duration Track
--------------------------------------------------------------------------------
DR7       -0.22 dB    -8.92 dB      3:09 01-Sunny Afternoon
DR8       -0.39 dB   -10.68 dB      3:09 02-Quicksilver Girl
DR9       -0.40 dB   -10.83 dB      3:37 03-Poor People / Justice
DR8       -0.27 dB   -10.38 dB      5:31 04-Murder In My Heart For The Judge
DR8       -0.38 dB   -10.26 dB      3:49 05-Bold Marauder
DR7       -0.29 dB    -9.00 dB      3:28 06-Itchycoo Park
DR8       -0.40 dB   -10.18 dB      2:13 07-Mrs. Brown You've Got A Lovely Daughter
DR7       -0.35 dB    -9.65 dB      5:17 08-Not So Sweet Martha Lorraine
DR7       -0.20 dB    -9.33 dB      2:40 09-If I Fell
DR7       -0.22 dB    -9.12 dB      3:38 10-Red Rubber Ball
DR9       -0.40 dB   -11.07 dB      2:27 11-Don't Let The Sun Catch You Crying
DR6       -0.26 dB    -8.37 dB      4:35 12-Hungry Freaks, Daddy
DR9       -0.39 dB   -11.63 dB      4:34 13-Wooden Ships
--------------------------------------------------------------------------------
Number of tracks:  13
Official DR value: DR8
Samplerate:        96000 Hz
Channels:          2
Bits per sample:   24
Bitrate:           2752 kbps
Codec:             FLAC
================================================================================

 

Приватный:
Нет (DHT включён)
Размер:
987.75 Мб (1,035,732,794 байт) » файлов: 16
Участники:
4 раздают, 0 качают (4 участников всего)
Внешние участники:
3 раздают, 1 качают (4 участников всего) [ Обновить ]
Нет сидеров - пишите личное сообщение M0p94ok. Не нравятся торренты? Участники группы Pro-jazz Club могут заказать прямую ссылку на скачивание из облака.
No seeders - write a personal message to M0p94ok. Don't like torrents? Members of Pro-jazz Club group can order a direct download link from the cloud.
16:09
155
Нет комментариев. Ваш будет первым!