Вы используете незарегистрированную версию компонента "Вкладки"!

Поиск

1954 Miles Davis - Blue Haze (2016) {Concord} [24-192]

1954 Miles Davis - Blue Haze (2016) {Concord} [24-192]
Стили:
Издатель (лейбл):
Треклист:

Формат записи/Источник записи: [TR24][OF]
Наличие водяных знаков: Нет
Год издания/переиздания диска: 1954/2016
Продолжительность: 36:39
Наличие сканов в содержимом раздачи: Буклет PDF
Источник: WRZmusic
Контейнер: FLAC (*.flac)
Тип рипа: tracks
Разрядность: 24/192
Формат: PCM
Количество каналов: 2.0
Магазин: qobuz.com

Треклист:
01. I'll Remember April (7:55)
02. Four In One (4:04)
03. Old Devil Moon (3:25)
04. Smooch (3:08)
05. Blue Haze (6:13)
06. When Lights Are Low (3:29)
07. Tune Up (3:56)
08. Miles Ahead (4:28)

 
Лог проверки качества
foobar2000 1.3.9 / Dynamic Range Meter 1.1.1
log date: 2018-07-05 09:14:18
--------------------------------------------------------------------------------
Analyzed: Miles Davis / Blue Haze
--------------------------------------------------------------------------------
DR         Peak         RMS     Duration Track
--------------------------------------------------------------------------------
DR12      -1.64 dB   -15.51 dB      7:55 01-I'll Remember April
DR11      -0.10 dB   -13.43 dB      4:04 02-Four In One
DR11      -0.10 dB   -13.02 dB      3:25 03-Old Devil Moon
DR11      -2.00 dB   -15.54 dB      3:08 04-Smooch
DR13      -0.10 dB   -16.37 dB      6:13 05-Blue Haze
DR12      -0.10 dB   -14.73 dB      3:29 06-When Lights Are Low
DR13      -0.10 dB   -15.01 dB      3:56 07-Tune Up
DR12      -0.10 dB   -14.48 dB      4:28 08-Miles Ahead
--------------------------------------------------------------------------------
Number of tracks:  8
Official DR value: DR12
Samplerate:        192000 Hz
Channels:          2
Bits per sample:   24
Bitrate:           2800 kbps
Codec:             FLAC
================================================================================

 

Состав:

Rec.: Englewood Cliffs, NJ, April 3 (#1) and March 15 (2, 3, 5), 1954; New York, May 19 (#4, 6-8), 1953.

Any questions - support@pro-jazz.com. Есть вопросы - support@pro-jazz.com
16:36
497
Нет комментариев. Ваш будет первым!