Поиск

1960 Miles Davis - Sketches Of Spain (2014) {Columbia, Legacy} [24-88,2]

1960 Miles Davis - Sketches Of Spain (2014) {Columbia, Legacy} [24-88,2]
Издатель (лейбл):
Треклист:

Формат записи/Источник записи: [TR24][OF]
Наличие водяных знаков: Нет
Год издания/переиздания диска: 1960/2014
Продолжительность: 45:23
Наличие сканов в содержимом раздачи: Только обложка альбома
Источник: WRZmusic
Контейнер: FLAC (*.flac)
Тип рипа: tracks
Разрядность: 24/88,2
Формат: PCM
Количество каналов: 2.0
Магазин: qobuz.com

Треклист:
01. Concierto de Aranjuez: Adagio (16:22)
02. Will O' The Wisp (3:50)
03. The Pan Piper (3:57)
04. Saeta (5:36)
05. Solea (15:39)

 
Лог проверки качества
foobar2000 1.3.9 / Dynamic Range Meter 1.1.1
log date: 2018-07-05 09:50:22
--------------------------------------------------------------------------------
Analyzed: Miles Davis / Sketches Of Spain
--------------------------------------------------------------------------------
DR         Peak         RMS     Duration Track
--------------------------------------------------------------------------------
DR18      -0.62 dB   -24.66 dB     16:22 01-Concierto de Aranjuez: Adagio
DR15      -4.60 dB   -23.13 dB      3:50 02-Will O' The Wisp
DR14      -2.71 dB   -19.89 dB      3:57 03-The Pan Piper
DR14      -1.07 dB   -20.02 dB      5:36 04-Saeta
DR13      -1.14 dB   -18.36 dB     15:39 05-Solea
--------------------------------------------------------------------------------
Number of tracks:  5
Official DR value: DR15
Samplerate:        88200 Hz
Channels:          2
Bits per sample:   24
Bitrate:           2945 kbps
Codec:             FLAC
================================================================================

 

Состав:
  • Danny Bank Bass, Clarinet, Clarinet (Bass)
  • Billy Barber Tuba
  • John Barrows French Horn
  • Al Block Flute, Oboe, Tuba
  • Albert Block Flute
  • James Buffington Fender Rhodes, French Horn
  • Eddie Caine Flugelhorn, Flute
  • Paul Chambers Bass
  • Earl Chapin French Horn
  • Jimmy Cleveland Guest Artist
  • Jimmy Cobb Drums
  • Johnny Coles Trumpet
  • Miles Davis Flageolet, Flugelhorn, Trumpet
  • Gil Evans Arranger, Composer, Conductor
  • Harold Feldman Clarinet, Flute, Oboe
  • Bernie Glow Trumpet
  • Nat Hentoff Liner Notes
  • Dick Hixon Trombone
  • Elvin Jones Percussion
  • Taft Jordan Trumpet
  • Jack Knitzer Bassoon
  • Teo Macero Producer, Remixing
  • Jose Mangual Percussion
  • Jimmy McAllister Tuba
  • Tony Miranda French Horn
  • Louis Mucci Trumpet
  • Romeo Penque Oboe
  • Fred Plaut Engineer
  • Janet Putnam Harp
  • Frank Rehak Trombone
  • Ernie Royal Trumpet
  • Tom "Curly" Ruff Engineer
  • Joe Singer French Horn
  • Irving Townsend Producer

Rec.: Columbia 30th Street Studio, New York City, November 15 — 20 1959 and March 10, 1960.

По всем вопросам пишите личное сообщение пользователю M0p94ok.
15:55
677
Нет комментариев. Ваш будет первым!